找回密码

查看: 1032|回复: 0

[剧情] 雪莉 Shirley.2020.1080p.BluRay.x264-USURY 9.71GB

[复制链接]
蓝光币
1917
发表于 2021-1-7 18:07:23 | 显示全部楼层 |阅读模式


◎译  名 雪莉
◎片  名 Shirley
◎年  代 2020
◎产  地 美国
◎类  别 剧情 / 惊悚 / 列传
◎语  言 英语
◎上映日期 2020-01-25(圣丹斯电影节) / 2020-06-05(美国)
◎IMDb评分  6.2/10 from 6869 users
◎IMDb链接  https://www.imdb.com/title/tt8430598/
◎豆瓣评分 6.2/10 from 1612 users
◎豆瓣链接 https://movie.douban.com/subject/30224749/
◎片  长 107分钟
◎导  演 约瑟芬·戴克 Josephine Decker
◎编  剧 萨拉·歌宾斯 Sarah Gubbins / 苏珊·斯卡夫·梅雷尔 Susan Scarf Merrell
◎主  演 伊丽莎白·莫斯 Elisabeth Moss
       罗根·勒曼 Logan Lerman
       迈克尔·斯图巴 Michael Stuhlbarg
       奥黛莎·杨 Odessa Young
       史蒂夫·维诺维奇 Steve Vinovich
       瑞恩·史帕恩 Ryan Spahn
       阿德莱林德·霍伦 Adelind Horan
       罗丝玛丽·霍华德 Rosemary Howard
       维多利亚·佩德雷蒂 Victoria Pedretti
◎标  签 惊悚 | 美国 | 剧情 | 2020 | 伊丽莎白·莫斯 | 美国电影 | 改编 | 电影
◎简  介


  影片改编自苏珊·斯卡夫·梅瑞尔小说,布景设备在上世纪60年月,报告了一对年轻佳耦(勒曼、杨饰)搬去与美国哥特惊悚小说家雪莉·杰克逊(莫斯饰)及其丈夫(斯图巴饰)同住,他们是以卷入一场心理惊悚事务,而这也为杰克逊的下一部小说供给了素材。
◎获奖情况
  第70届柏林国际电影节 ?(2020)
  碰见单元最好影片(提名) 约瑟芬·戴克
  泰迪熊奖(提名) 约瑟芬·戴克
  1. Video
  2. ID                                       : 1
  3. Format                                   : AVC
  4. Format/Info                              : Advanced Video Codec
  5. Format profile                           : [email protected]
  6. Format settings                          : CABAC / 4 Ref Frames
  7. Format settings, CABAC                   : Yes
  8. Format settings, Reference frames        : 4 frames
  9. Codec ID                                 : V_MPEG4/ISO/AVC
  10. Duration                                 : 1 h 47 min
  11. Bit rate                                 : 10.9 Mb/s
  12. Width                                    : 1 920 pixels
  13. Height                                   : 1 038 pixels
  14. Display aspect ratio                     : 1.85:1
  15. Frame rate mode                          : Constant
  16. Frame rate                               : 23.976 (24000/1001/189150) FPS
  17. Color space                              : YUV
  18. Chroma subsampling                       : 4:2:0
  19. Bit depth                                : 8 bits
  20. Scan type                                : Progressive
  21. Bits/(Pixel*Frame)                       : 0.229
  22. Stream size                              : 8.18 GiB (84%)
  23. Writing library                          : x264 core 161 r3027 4121277
  24. Encoding settings                        : cabac=1 / ref=4 / deblock=1:-3:-3 / analyse=0x3:0x133 / me=umh / subme=10 / psy=1 / psy_rd=1.00:0.15 / mixed_ref=1 / me_range=24 / chroma_me=1 / trellis=2 / 8x8dct=1 / cqm=0 / deadzone=21,11 / fast_pskip=1 / chroma_qp_offset=-3 / threads=18 / lookahead_threads=3 / sliced_threads=0 / nr=0 / decimate=1 / interlaced=0 / bluray_compat=0 / constrained_intra=0 / bframes=8 / b_pyramid=2 / b_adapt=2 / b_bias=0 / direct=3 / weightb=1 / open_gop=0 / weightp=2 / keyint=250 / keyint_min=23 / scenecut=40 / intra_refresh=0 / rc_lookahead=60 / rc=crf / mbtree=1 / crf=17.0 / qcomp=0.60 / qpmin=0 / qpmax=69 / qpstep=4 / ip_ratio=1.40 / aq=3:0.60
  25. Language                                 : English
  26. Default                                  : Yes
  27. Forced                                   : No
  28. Color range                              : Limited
  29. Matrix coefficients                      : BT.709

  30. Audio
  31. ID                                       : 2
  32. Format                                   : DTS XLL
  33. Format/Info                              : Digital Theater Systems
  34. Commercial name                          : DTS-HD Master Audio
  35. Codec ID                                 : A_DTS
  36. Duration                                 : 1 h 47 min
  37. Bit rate mode                            : Variable
  38. Bit rate                                 : 2 028 kb/s
  39. Channel(s)                               : 6 channels
  40. Channel layout                           : C L R Ls Rs LFE
  41. Sampling rate                            : 48.0 kHz
  42. Frame rate                               : 93.750 FPS (512 SPF)
  43. Bit depth                                : 16 bits
  44. Compression mode                         : Lossless
  45. Stream size                              : 1.52 GiB (16%)
  46. Language                                 : English
  47. Default                                  : Yes
  48. Forced                                   : No

  49. Text #1
  50. ID                                       : 3
  51. Format                                   : UTF-8
  52. Codec ID                                 : S_TEXT/UTF8
  53. Codec ID/Info                            : UTF-8 Plain Text
  54. Duration                                 : 1 h 41 min
  55. Bit rate                                 : 40 b/s
  56. Count of elements                        : 1085
  57. Stream size                              : 30.0 KiB (0%)
  58. Title                                    : English
  59. Language                                 : English
  60. Default                                  : No
  61. Forced                                   : No

  62. Text #2
  63. ID                                       : 4
  64. Format                                   : UTF-8
  65. Codec ID                                 : S_TEXT/UTF8
  66. Codec ID/Info                            : UTF-8 Plain Text
  67. Duration                                 : 1 h 44 min
  68. Bit rate                                 : 43 b/s
  69. Count of elements                        : 1222
  70. Stream size                              : 33.4 KiB (0%)
  71. Title                                    : English SDH
  72. Language                                 : English
  73. Default                                  : No
  74. Forced                                   : No

  75. Text #3
  76. ID                                       : 5
  77. Format                                   : PGS
  78. Muxing mode                              : zlib
  79. Codec ID                                 : S_HDMV/PGS
  80. Codec ID/Info                            : Picture based subtitle format used on BDs/HD-DVDs
  81. Duration                                 : 1 h 44 min
  82. Bit rate                                 : 11.2 kb/s
  83. Count of elements                        : 1586
  84. Stream size                              : 8.34 MiB (0%)
  85. Title                                    : English SDH
  86. Language                                 : English
  87. Default                                  : No
  88. Forced                                   : No

  89. Menu
  90. 00:00:00.000                             : en:00:00:00.000
  91. 00:11:13.631                             : en:00:11:13.631
  92. 00:21:12.897                             : en:00:21:12.897
  93. 00:30:32.748                             : en:00:30:32.748
  94. 00:42:22.957                             : en:00:42:22.957
  95. 00:54:48.744                             : en:00:54:48.744
  96. 01:04:44.380                             : en:01:04:44.380
  97. 01:10:46.742                             : en:01:10:46.742
  98. 01:19:53.622                             : en:01:19:53.622
  99. 01:30:57.494                             : en:01:30:57.494
  100. 01:36:43.798                             : en:01:36:43.798
  101. 01:41:24.120                             : en:01:41:24.120
复制代码



                                       
                                       

                                       
                                       
                                       




回复

使用道具 举报

懒得打字嘛,点击右侧快捷回复 【右侧内容,后台自定义】
您需要登录后才可以回帖 登录 | 立即加入

本版积分规则

Archiver| |网站地图

Copyright © 2024 Comsenz Inc. Powered by 蓝光电影网

本站内容由用户自主分享和转载自互联网,转载目的在于传递更多信息,并不代表本网赞同其观点和对其真实性负责。

如有侵权、违反国家法律政策行为,请联系我们,我们会第一时间及时清除和处理!

举报反馈邮箱:4k1080.com@gmail.com

快速回复 返回顶部 返回列表