找回密码

查看: 4358|回复: 0

[剧情] 雪莉:现实的愿景/十三个雪莉 Shirley.Visions.of.Reality.2013.720p.BluRay.x264-BiPOLAR 4.37GB

[复制链接]
蓝光币
1917
发表于 2018-4-4 17:41:18 | 显示全部楼层 |阅读模式
160817wc9ofk9fv4c47to7.jpg
◎译  名 雪莉:现实的愿景/十三个雪莉/13个雪莉-现实的幻象
◎片  名 Shirley - Visions of Reality
◎年  代 2013
◎产  地 奥天时
◎类  别 剧情
◎语  言 英语
◎IMDb评分  6.6/10 from 594 users
◎IMDb链接  http://www.imdb.com/title/tt2636806/
◎豆瓣评分 7.1/10 from 695 users
◎豆瓣链接 https://movie.douban.com/subject/20645008/
◎片  长 92分钟
◎导  演 古斯塔夫·德池 Gustav Deutsch
◎主  演 Stephanie Cumming
      Christoph Bach
      Florentín Groll
      埃尔弗里德·鄂日尔 Elfriede Irrall
      Tom Hanslmaier

◎简  介

  影片《13 个雪莉:现实的幻象》用美国画家爱德华?霍普的 13 幅绝世名画组成了美国社会历史的现实风光,而历史正是由无数的小我故事所誊写的——雪莉,一个美国女性的缩影,她走进霍普的画作,走过美国 20 世纪的严重历史时辰,见证政治、社会和文化等各层面的剧变:从珍珠港事变到第二次天下大战、从麦卡锡时代和冷战到肯尼迪总统遇刺身亡和越战爆发、从股市崩盘到经济冷落、从猫王埃尔维斯?普利斯莱和摇滚乐到马龙?白兰度和玛丽莲?梦露……
  爱德华?霍普的绘画作品受“黑色电影”门户影响,响应的也影响了希区柯克、贾木许、文德斯等电影导演的创作。本片导演古斯塔夫?德池灵敏地捕捉到霍普的绘画与电影艺术之间的关联,精选霍普的 13 幅生活风光画作,以绘画与电影的对话为主轴,加以现实的论述,用绘画、现实和影象组合出新的电影说话,操纵灯光、色彩和音乐建构出戏院化的体验。宏大的议题倚托几近静止的精彩画面,借用雪莉段落式的心里独白,以女性视角解读美国历史,誊写出一篇新世纪美国女性的自力宣言,是美国文化进步的齿轮印记。


  1. Video
  2. ID                                       : 1
  3. Format                                   : AVC
  4. Format/Info                              : Advanced Video Codec
  5. Format profile                           : [email]High@L4.1[/email]
  6. Format settings                          : CABAC / 5 Ref Frames
  7. Format settings, CABAC                   : Yes
  8. Format settings, RefFrames               : 5 frames
  9. Codec ID                                 : V_MPEG4/ISO/AVC
  10. Duration                                 : 1 h 32 min
  11. Bit rate                                 : 5 233 kb/s
  12. Width                                    : 1 280 pixels
  13. Height                                   : 720 pixels
  14. Display aspect ratio                     : 16:9
  15. Frame rate mode                          : Constant
  16. Frame rate                               : 23.976 (24000/1001) FPS
  17. Color space                              : YUV
  18. Chroma subsampling                       : 4:2:0
  19. Bit depth                                : 8 bits
  20. Scan type                                : Progressive
  21. Bits/(Pixel*Frame)                       : 0.237
  22. Stream size                              : 3.39GB (78%)
  23. Writing library                          : x264 core 155 r2901 7d0ff22
  24. Encoding settings                        : cabac=1 / ref=5 / deblock=1:-3:-3 / analyse=0x3:0x133 / me=umh / subme=9 / psy=1 / psy_rd=1.00:0.00 / mixed_ref=1 / me_range=16 / chroma_me=1 / trellis=2 / 8x8dct=1 / cqm=0 / deadzone=21,11 / fast_pskip=0 / chroma_qp_offset=-2 / threads=22 / lookahead_threads=1 / sliced_threads=0 / nr=0 / decimate=1 / interlaced=0 / bluray_compat=0 / constrained_intra=0 / bframes=3 / b_pyramid=2 / b_adapt=1 / b_bias=0 / direct=3 / weightb=1 / open_gop=0 / weightp=2 / keyint=240 / keyint_min=24 / scenecut=40 / intra_refresh=0 / rc_lookahead=50 / rc=2pass / mbtree=1 / bitrate=5233 / ratetol=1.0 / qcomp=0.60 / qpmin=0 / qpmax=69 / qpstep=4 / cplxblur=20.0 / qblur=0.5 / ip_ratio=1.40 / aq=1:1.00
  25. Language                                 : English
  26. Default                                  : Yes
  27. Forced                                   : No

  28. Audio
  29. ID                                       : 2
  30. Format                                   : DTS
  31. Format/Info                              : Digital Theater Systems
  32. Mode                                     : 16
  33. Format settings, Endianness              : Big
  34. Codec ID                                 : A_DTS
  35. Duration                                 : 1 h 32 min
  36. Bit rate mode                            : Constant
  37. Bit rate                                 : 1 509 kb/s
  38. Channel(s)                               : 6 channels
  39. Channel positions                        : Front: L C R, Side: L R, LFE
  40. Sampling rate                            : 48.0 kHz
  41. Frame rate                               : 93.750 FPS (512 SPF)
  42. Bit depth                                : 24 bits
  43. Compression mode                         : Lossy
  44. Stream size                              : 1 002 MiB (22%)
  45. Language                                 : English
  46. Default                                  : Yes
  47. Forced                                   : No

  48. Text
  49. ID                                       : 3
  50. Format                                   : UTF-8
  51. Codec ID                                 : S_TEXT/UTF8
  52. Codec ID/Info                            : UTF-8 Plain Text
  53. Duration                                 : 1 h 21 min
  54. Bit rate                                 : 37 b/s
  55. Count of elements                        : 668
  56. Stream size                              : 22.5 KiB (0%)
  57. Title                                    : English
  58. Language                                 : English
  59. Default                                  : No
  60. Forced                                   : No

  61. Menu
  62. 00:00:00.000                             : en:00:00:00.000
  63. 00:10:11.152                             : en:00:10:11.152
  64. 00:20:01.784                             : en:00:20:01.784
  65. 00:29:47.160                             : en:00:29:47.160
  66. 00:39:26.239                             : en:00:39:26.239
  67. 00:50:11.717                             : en:00:50:11.717
  68. 00:58:42.436                             : en:00:58:42.436
  69. 01:09:58.152                             : en:01:09:58.152
  70. 01:20:42.504                             : en:01:20:42.504




复制代码
复制代码
160817q3x48pteiievme5a.jpg






回复

使用道具 举报

懒得打字嘛,点击右侧快捷回复 【右侧内容,后台自定义】
您需要登录后才可以回帖 登录 | 立即加入

本版积分规则

Archiver| |网站地图

Copyright © 2024 Comsenz Inc. Powered by 蓝光电影网

本站内容由用户自主分享和转载自互联网,转载目的在于传递更多信息,并不代表本网赞同其观点和对其真实性负责。

如有侵权、违反国家法律政策行为,请联系我们,我们会第一时间及时清除和处理!

举报反馈邮箱:4k1080.com@gmail.com

快速回复 返回顶部 返回列表