找回密码

查看: 995|回复: 0

[剧情] 灵犬雪莉:冒险再出发/灵犬贝拉2 Belle.and.Sebastian.The.Adventure.Continues.2015.FRENCH.1080p.BluRay.x264.DTS-EDPH 12.15GB

[复制链接]
蓝光币
1971
发表于 2021-3-30 10:41:15 | 显示全部楼层 |阅读模式


◎译  名 灵犬雪莉:冒险再动身/灵犬贝拉2/靈犬貝兒之奇蹟救济(台)
◎片  名 Belle et Sébastien : l'aventure continue
◎年  代 2015
◎产  地 法国
◎类  别 剧情 / 冒险
◎语  言 法语
◎上映日期 2015-12-09
◎IMDb评分  6.6/10 from 1241 users
◎IMDb链接  https://www.imdb.com/title/tt4083850/
◎豆瓣评分 7.8/10 from 768 users
◎豆瓣链接 https://movie.douban.com/subject/26636044/
◎片  长 97分钟
◎导  演 克里斯丁·杜瓦 Christian Duguay
◎编  剧 塞希乐·奥布赫 Cécile Aubry / 朱丽叶·赛尔斯 Juliette Sales / 法比恩·萨华雷斯 Fabien Suarez
◎主  演 费利克斯·博叙埃 Félix Bossuet
       切基·卡尤 Tchéky Karyo
       蒂埃里·钮维 Thierry Neuvic
       玛格·夏特莉 Margaux Chatelier
       赛琳·布朗度 Thylane Blondeau
       于尔班·康塞利埃 Urbain Cancelier
       约瑟夫·玛勒巴 Joseph Malerba
       鲁迪·博肯 Ludi Boeken
       杰弗里·诺尔 Jeffrey Noel
       奥克塔夫·波斯维特 Octave Bossuet
◎标  签 灵犬雪莉 | 法国 | 动物 | 狗狗 | 法国电影 | 冒险 | 狗 | 儿童
◎简  介


  影片改编自法国女演员、导演和作家塞茜尔·奥布里(Cécile Aubry;1928年8月3日~2010年7月19日)典范儿童读物《贝勒与塞巴斯蒂安》(Belle et Sébastien)。
  
  1945年9月,人们一向在庆贺二战的竣事。长大的塞巴斯蒂安(费利克斯·波舒哀饰)已经10岁了,神机妙算的他同他的狗狗贝勒和祖父塞萨尔César(柴基·卡雷奥饰)仍然住在圣马丁的山寨。他们都在焦虑地期待着安热莉娜Angelina(玛尔戈·沙特利耶饰)的归来,但安热莉娜永久不会返来了,她已经随坠毁的飞机消失在高山森林中,全山寨的人都已放弃了希望。他们现在有了唯一能找到她的希望,由于塞萨尔晓得有小我可以供给帮助,那就是飞翔员皮埃尔Pierre(蒂埃里·纳维克饰)。在拯救安热莉娜之前,塞巴斯蒂安和他的贝勒不但要勇敢面临很多新的危险,经过新的考验,还将面临一个能够会永久改变他们生活的奥秘.....
  1. Video
  2. ID                                       : 1
  3. Format                                   : AVC
  4. Format/Info                              : Advanced Video Codec
  5. Format profile                           : [email protected]
  6. Format settings                          : CABAC / 5 Ref Frames
  7. Format settings, CABAC                   : Yes
  8. Format settings, Reference frames        : 5 frames
  9. Codec ID                                 : V_MPEG4/ISO/AVC
  10. Duration                                 : 1 h 36 min
  11. Bit rate                                 : 16.5 Mb/s
  12. Width                                    : 1 920 pixels
  13. Height                                   : 804 pixels
  14. Display aspect ratio                     : 2.40:1
  15. Frame rate mode                          : Constant
  16. Frame rate                               : 24.000 FPS
  17. Color space                              : YUV
  18. Chroma subsampling                       : 4:2:0
  19. Bit depth                                : 8 bits
  20. Scan type                                : Progressive
  21. Bits/(Pixel*Frame)                       : 0.444
  22. Stream size                              : 11.1 GiB (92%)
  23. Writing library                          : x264 core 161 r3027 4121277
  24. Encoding settings                        : cabac=1 / ref=5 / deblock=1:-3:-3 / analyse=0x3:0x133 / me=umh / subme=11 / psy=1 / psy_rd=1.02:0.00 / mixed_ref=1 / me_range=32 / chroma_me=1 / trellis=2 / 8x8dct=1 / cqm=0 / deadzone=21,11 / fast_pskip=0 / chroma_qp_offset=-2 / threads=12 / lookahead_threads=3 / sliced_threads=0 / nr=0 / decimate=0 / interlaced=0 / bluray_compat=0 / constrained_intra=0 / bframes=16 / b_pyramid=2 / b_adapt=2 / b_bias=0 / direct=3 / weightb=1 / open_gop=0 / weightp=2 / keyint=250 / keyint_min=24 / scenecut=40 / intra_refresh=0 / rc_lookahead=250 / rc=crf / mbtree=0 / crf=16.4 / qcomp=0.65 / qpmin=0 / qpmax=69 / qpstep=4 / vbv_maxrate=62500 / vbv_bufsize=78125 / crf_max=0.0 / nal_hrd=none / filler=0 / ip_ratio=1.30 / pb_ratio=1.20 / aq=3:0.80
  25. Language                                 : English
  26. Default                                  : No
  27. Forced                                   : No
  28. Color range                              : Limited
  29. Color primaries                          : BT.709
  30. Matrix coefficients                      : BT.709
  31. Audio
  32. ID                                       : 2
  33. Format                                   : DTS
  34. Format/Info                              : Digital Theater Systems
  35. Codec ID                                 : A_DTS
  36. Duration                                 : 1 h 36 min
  37. Bit rate mode                            : Constant
  38. Bit rate                                 : 1 509 kb/s
  39. Channel(s)                               : 6 channels
  40. Channel layout                           : C L R Ls Rs LFE
  41. Sampling rate                            : 48.0 kHz
  42. Frame rate                               : 93.750 FPS (512 SPF)
  43. Bit depth                                : 24 bits
  44. Compression mode                         : Lossy
  45. Stream size                              : 1.02 GiB (8%)
  46. Language                                 : French
  47. Default                                  : No
  48. Forced                                   : No
  49. Text
  50. ID                                       : 3
  51. Format                                   : UTF-8
  52. Codec ID                                 : S_TEXT/UTF8
  53. Codec ID/Info                            : UTF-8 Plain Text
  54. Duration                                 : 1 h 30 min
  55. Bit rate                                 : 33 b/s
  56. Count of elements                        : 925
  57. Stream size                              : 22.4 KiB (0%)
  58. Language                                 : English
  59. Default                                  : Yes
  60. Forced                                   : No
  61. Menu
  62. 00:00:00.000                             : en:Chapter 01
  63. 00:10:29.875                             : en:Chapter 02
  64. 00:18:29.000                             : en:Chapter 03
  65. 00:23:53.958                             : en:Chapter 04
  66. 00:33:46.875                             : en:Chapter 05
  67. 00:42:33.000                             : en:Chapter 06
  68. 00:46:36.583                             : en:Chapter 07
  69. 00:55:06.000                             : en:Chapter 08
  70. 01:04:35.916                             : en:Chapter 09
  71. 01:11:07.125                             : en:Chapter 10
  72. 01:22:11.666                             : en:Chapter 11
  73. 01:28:47.208                             : en:Chapter 12
复制代码






                                       
                                       

                                       
                                       
                                       




回复

使用道具 举报

懒得打字嘛,点击右侧快捷回复 【右侧内容,后台自定义】
您需要登录后才可以回帖 登录 | 立即加入

本版积分规则

Archiver| |网站地图

Copyright © 2024 Comsenz Inc. Powered by 蓝光电影网

本站内容由用户自主分享和转载自互联网,转载目的在于传递更多信息,并不代表本网赞同其观点和对其真实性负责。

如有侵权、违反国家法律政策行为,请联系我们,我们会第一时间及时清除和处理!

举报反馈邮箱:4k1080.com@gmail.com

快速回复 返回顶部 返回列表