找回密码

查看: 1236|回复: 0

[剧情] 灵犬雪莉 Belle.And.Sebastian.2013.1080p.BluRay.x264-PFa 7.64GB

[复制链接]
蓝光币
1971
发表于 2021-7-15 09:06:21 | 显示全部楼层 |阅读模式


◎译  名 灵犬雪莉/Belle and Sebastian/我和贝贝的历险(台)/灵犬贝拉/灵犬雪丽
◎片  名 Belle et Sébastien
◎年  代 2013
◎产  地 法国
◎类  别 剧情 / 冒险
◎语  言 法语,德语
◎上映日期 2013-12-18(法国)
◎豆瓣评分 8.3/10 from 14079 users
◎豆瓣链接 https://movie.douban.com/subject/25745494/
◎片  长 104分钟
◎导  演 尼古拉·瓦尼埃 Nicolas Vanier
◎编  剧 朱丽叶·赛尔斯 Juliette Sales / 法比恩·萨华雷斯 Fabien Suarez / 尼古拉·瓦尼埃 Nicolas Vanier
◎主  演 费利克斯·博叙埃 Félix Bossuet
       切基·卡尤 Tchéky Karyo
       玛格·夏特莉 Margaux Chatelier
       德米特里·斯托罗奇 Dimitri Storoge
       安德烈亚斯·皮特斯柯曼 Andreas Pietschmann
       于尔班·康塞利埃 Urbain Cancelier
       迈赫迪·格拉维 Mehdi El Glaoui
       詹·奥利弗·施罗德 Jan Oliver Schroeder
       安德烈·达芒 Andrée Damant
◎标  签 法国 | 动物 | 温情 | 动人 | 剧情 | 狗 | 冒险 | 小正太和大狗狗就值5颗星!
◎简  介


  改编自法国著名的童书,此前这部书就已经屡次被拍成电视剧和电影。故事发生在二战时代的阿尔卑斯山脚下的小镇上,报告了小男孩塞巴斯蒂安驯化灵犬雪莉的故事。这里位于法国和西班牙交界,大地被皑皑白雪,一切都那末安好平和,直到纳粹兵士的到来。在小镇上有一只叫 做雪莉的小白狗和叫做塞巴斯蒂安的小男孩,他们诞生在同一天。这两个初生时互不相关的小生命,在无形命运的拉扯下,几年后被牢牢的连繫在一路,成了相互相知并深深相惜的好伙伴。这是一次永久友谊的历险,也是一个神机妙算而又使人感动孩子不服凡的故事。这是一个小男孩寻觅母亲、一位老人追随过往、一个抵抗战士寻觅恋爱、一位年轻女子寻觅奇遇、一个德国军官寻讨饶恕的古怪旅程。这是灵犬雪莉与塞巴斯蒂安的生活..
  1. Video
  2. ID                                       : 1
  3. Format                                   : AVC
  4. Format/Info                              : Advanced Video Codec
  5. Format profile                           : [email protected]
  6. Format settings                          : CABAC / 5 Ref Frames
  7. Format settings, CABAC                   : Yes
  8. Format settings, Reference frames        : 5 frames
  9. Codec ID                                 : V_MPEG4/ISO/AVC
  10. Duration                                 : 1 h 38 min
  11. Bit rate                                 : 9 348 kb/s
  12. Width                                    : 1 920 pixels
  13. Height                                   : 816 pixels
  14. Display aspect ratio                     : 2.35:1
  15. Frame rate mode                          : Constant
  16. Frame rate                               : 24.000 FPS
  17. Color space                              : YUV
  18. Chroma subsampling                       : 4:2:0
  19. Bit depth                                : 8 bits
  20. Scan type                                : Progressive
  21. Bits/(Pixel*Frame)                       : 0.249
  22. Stream size                              : 6.31 GiB (83%)
  23. Writing library                          : x264 core 144 r2525 40bb568
  24. Encoding settings                        : cabac=1 / ref=5 / deblock=1:0:0 / analyse=0x3:0x133 / me=umh / subme=8 / psy=1 / psy_rd=1.00:0.00 / mixed_ref=1 / me_range=16 / chroma_me=1 / trellis=1 / 8x8dct=1 / cqm=0 / deadzone=21,11 / fast_pskip=0 / chroma_qp_offset=-2 / threads=12 / lookahead_threads=2 / sliced_threads=0 / nr=0 / decimate=1 / interlaced=0 / bluray_compat=0 / constrained_intra=0 / bframes=3 / b_pyramid=2 / b_adapt=1 / b_bias=0 / direct=1 / weightb=1 / open_gop=0 / weightp=2 / keyint=250 / keyint_min=23 / scenecut=40 / intra_refresh=0 / rc_lookahead=40 / rc=2pass / mbtree=1 / bitrate=9348 / ratetol=1.0 / qcomp=0.60 / qpmin=0 / qpmax=69 / qpstep=4 / cplxblur=20.0 / qblur=0.5 / ip_ratio=1.40 / aq=1:1.00
  25. Language                                 : English
  26. Default                                  : Yes
  27. Forced                                   : No

  28. Audio #1
  29. ID                                       : 2
  30. Format                                   : AC-3
  31. Format/Info                              : Audio Coding 3
  32. Commercial name                          : Dolby Digital
  33. Codec ID                                 : A_AC3
  34. Duration                                 : 1 h 38 min
  35. Bit rate mode                            : Constant
  36. Bit rate                                 : 192 kb/s
  37. Channel(s)                               : 2 channels
  38. Channel layout                           : L R
  39. Sampling rate                            : 48.0 kHz
  40. Frame rate                               : 31.250 FPS (1536 SPF)
  41. Compression mode                         : Lossy
  42. Stream size                              : 136 MiB (2%)
  43. Language                                 : English
  44. Service kind                             : Complete Main
  45. Default                                  : Yes
  46. Forced                                   : No

  47. Audio #2
  48. ID                                       : 3
  49. Format                                   : DTS
  50. Format/Info                              : Digital Theater Systems
  51. Codec ID                                 : A_DTS
  52. Duration                                 : 1 h 38 min
  53. Bit rate mode                            : Constant
  54. Bit rate                                 : 1 509 kb/s
  55. Channel(s)                               : 6 channels
  56. Channel layout                           : C L R Ls Rs LFE
  57. Sampling rate                            : 48.0 kHz
  58. Frame rate                               : 93.750 FPS (512 SPF)
  59. Bit depth                                : 16 bits
  60. Compression mode                         : Lossy
  61. Stream size                              : 1.04 GiB (14%)
  62. Language                                 : French
  63. Default                                  : No
  64. Forced                                   : No

  65. Text
  66. ID                                       : 4
  67. Format                                   : UTF-8
  68. Codec ID                                 : S_TEXT/UTF8
  69. Codec ID/Info                            : UTF-8 Plain Text
  70. Default                                  : Yes
  71. Forced                                   : No
复制代码










                                       
                                       

                                       
                                       
                                       




回复

使用道具 举报

懒得打字嘛,点击右侧快捷回复 【右侧内容,后台自定义】
您需要登录后才可以回帖 登录 | 立即加入

本版积分规则

Archiver| |网站地图

Copyright © 2024 Comsenz Inc. Powered by 蓝光电影网

本站内容由用户自主分享和转载自互联网,转载目的在于传递更多信息,并不代表本网赞同其观点和对其真实性负责。

如有侵权、违反国家法律政策行为,请联系我们,我们会第一时间及时清除和处理!

举报反馈邮箱:4k1080.com@gmail.com

快速回复 返回顶部 返回列表