找回密码

查看: 1399|回复: 0

[剧情] 偶然与想象[中文字幕].Wheel.of.Fortune.and.Fantasy.2021.1080p.BluRay.DTS.x265-10bit-CHDBits 6.93GB

[复制链接]
蓝光币
8
发表于 2022-7-14 08:37:36 | 显示全部楼层 |阅读模式


◎标  题 偶然与设想
◎译  名 偶然与设想之轮(港) / 命运与空想之轮 / Wheel of Fortune and Fantasy
◎片  名 偶然と想像
◎年  代 2021
◎产  地 日本
◎类  别 剧情 / 恋爱
◎语  言 日语
◎上映日期 2021-03-04(柏林电影节) / 2021-12-17(日本)
◎IMDb评分 7.6/10 (5178人评价)
◎IMDb链接 https://www.imdb.com/title/tt14034966/
◎豆瓣评分 8.3/10 (53664人评价)
◎豆瓣链接 https://movie.douban.com/subject/35360296/
◎片  长 121分钟
◎导  演 滨口龙介 Ryûsuke Hamaguchi
◎编  剧 滨口龙介 Ryûsuke Hamaguchi
◎演  员 古川琴音 Kotone Furukawa
       涩川清彦 Kiyohiko Shibukawa
       占部屋子 Fusako Urabe
       中岛步 Ayumu Nakajima
       玄理 Hyunri
       森郁月 Katsuki Mori
       甲斐翔真 Shouma Kai
       河井青叶 Aoba Kawai
       飯岡幸子 Yukiko Iioka
       徐贤先 Hyeon Seon Seo
◎简  介
  影片由三个短片组成——《魔法(比魔法更不逼真)》《开着的门》《再来一次》。女性脚色的多重性和镜像性是滨口之前的作品中的主题,在他的新作《偶然与设想》中也是如此。前作《欢乐时光》和《夜以继日》,从字面上看,很有小说的味道,而《偶然与设想》则可以说是一部短篇小说集。叙事节奏 更强化了这一印象:三集,每集围绕一个女性脚色展开,又分为三幕。三个短片报告了一个意想不到的三角恋、一场得逞的引诱和一个因误解而相遇的故事。虽然零星,但仍连结了有机的叙事流程,甚至还夸大了这一点。虽然大部分的行动都发生在一个空间里,而且只要两个演员介入,这部电影却不让人感觉像一出室内剧。这不但仅是由于对话的原因,还在于其复杂的时空概念,最初一集几近酿成了科幻片。我们所见证的时辰都与动人的普遍命运相连,以挑选、遗憾、欺骗和偶合为标志,它们是影片实在的配角。
  1. ##### MediaInfo ######
  2. General
  3. Unique ID                                : 3414087881167490766723126411405018349 (0x29187874D95FE4D79344C84F9F7C4ED)
  4. Complete name                            : Wheel.of.Fortune.and.Fantasy.2021.1080p.BluRay.DTS.x265-10bit-CHDBits.mkv
  5. Format                                   : Matroska
  6. Format version                           : Version 4
  7. File size                                : 6.93 GiB
  8. Duration                                 : 2 h 1 min
  9. Overall bit rate                         : 8 156 kb/s
  10. Movie name                               : Wheel of Fortune and Fantasy 2021 1080p BluRay DTS x265-10bit-HDS
  11. Encoded date                             : UTC 2022-06-24 02:11:20
  12. Writing application                      : mkvmerge v38.0.0 ('The Silent Type') 64-bit
  13. Writing library                          : libebml v1.3.9 + libmatroska v1.5.2
  14. Video
  15. ID                                       : 1
  16. Format                                   : HEVC
  17. Format/Info                              : High Efficiency Video Coding
  18. Format profile                           : Main [email protected]@High
  19. Codec ID                                 : V_MPEGH/ISO/HEVC
  20. Duration                                 : 2 h 1 min
  21. Bit rate                                 : 6 622 kb/s
  22. Width                                    : 1 920 pixels
  23. Height                                   : 1 080 pixels
  24. Display aspect ratio                     : 16:9
  25. Frame rate mode                          : Constant
  26. Frame rate                               : 23.976 (24000/1001/53875) FPS
  27. Color space                              : YUV
  28. Chroma subsampling                       : 4:2:0
  29. Bit depth                                : 10 bits
  30. Bits/(Pixel*Frame)                       : 0.133
  31. Stream size                              : 5.62 GiB (81%)
  32. Title                                    : [email protected]
  33. Writing library                          : x265 - H.265/HEVC codec
  34. Default                                  : Yes
  35. Forced                                   : No
  36. Audio
  37. ID                                       : 2
  38. Format                                   : DTS
  39. Format/Info                              : Digital Theater Systems
  40. Codec ID                                 : A_DTS
  41. Duration                                 : 2 h 1 min
  42. Bit rate mode                            : Constant
  43. Bit rate                                 : 1 509 kb/s
  44. Channel(s)                               : 6 channels
  45. Channel layout                           : C L R Ls Rs LFE
  46. Sampling rate                            : 48.0 kHz
  47. Frame rate                               : 93.750 FPS (512 SPF)
  48. Bit depth                                : 24 bits
  49. Compression mode                         : Lossy
  50. Stream size                              : 1.28 GiB (18%)
  51. Title                                    : English
  52. Language                                 : English
  53. Default                                  : Yes
  54. Forced                                   : No
  55. Text #1
  56. ID                                       : 3
  57. Format                                   : PGS
  58. Muxing mode                              : zlib
  59. Codec ID                                 : S_HDMV/PGS
  60. Codec ID/Info                            : Picture based subtitle format used on BDs/HD-DVDs
  61. Duration                                 : 1 h 59 min
  62. Bit rate                                 : 22.7 kb/s
  63. Count of elements                        : 2910
  64. Stream size                              : 19.4 MiB (0%)
  65. Title                                    : CHS
  66. Language                                 : Chinese
  67. Default                                  : Yes
  68. Forced                                   : No
  69. Text #2
  70. ID                                       : 4
  71. Format                                   : PGS
  72. Muxing mode                              : zlib
  73. Codec ID                                 : S_HDMV/PGS
  74. Codec ID/Info                            : Picture based subtitle format used on BDs/HD-DVDs
  75. Duration                                 : 1 h 59 min
  76. Bit rate                                 : 23.5 kb/s
  77. Count of elements                        : 2910
  78. Stream size                              : 20.0 MiB (0%)
  79. Title                                    : CHT
  80. Language                                 : Chinese
  81. Default                                  : No
  82. Forced                                   : No
  83. Menu
  84. 00:00:00.000                             : en:Chapter 01
  85. 00:13:40.611                             : en:Chapter 02
  86. 00:29:00.906                             : en:Chapter 03
  87. 00:29:50.372                             : en:Chapter 04
  88. 00:37:43.386                             : en:Chapter 05
  89. 00:46:09.558                             : en:Chapter 06
  90. 01:11:50.890                             : en:Chapter 07
  91. 01:13:12.096                             : en:Chapter 08
  92. 01:19:54.748                             : en:Chapter 09
  93. 01:28:39.606                             : en:Chapter 10
  94. 01:50:10.729                             : en:Chapter 11
  95. 01:59:39.339                             : en:Chapter 12
  96. 02:01:25.445                             : en:Chapter 13
复制代码
















保举请利用qBittorrent,utorrent,transmission等标准BT软件下载!以获得最快速度。奉求保种!





回复

使用道具 举报

懒得打字嘛,点击右侧快捷回复 【右侧内容,后台自定义】
您需要登录后才可以回帖 登录 | 立即加入

本版积分规则

Archiver| |网站地图

Copyright © 2024 Comsenz Inc. Powered by 蓝光电影网

本站内容由用户自主分享和转载自互联网,转载目的在于传递更多信息,并不代表本网赞同其观点和对其真实性负责。

如有侵权、违反国家法律政策行为,请联系我们,我们会第一时间及时清除和处理!

举报反馈邮箱:4k1080.com@gmail.com

快速回复 返回顶部 返回列表