找回密码

查看: 1632|回复: 0

[剧情] 偶然与想象[中文字幕].Wheel.of.Fortune.and.Fantasy.2021.1080p.WEB-DL.AAC2.0.H.264-CTRLWEB 3.10GB

[复制链接]
蓝光币
8
发表于 2022-5-23 03:24:04 | 显示全部楼层 |阅读模式
偶然与设想[中笔墨幕].Wheel.of.Fortune.and.Fantasy.2021.1080p.WEB-DL.AAC2.0.H.264-CTRLWEB 3.10GB-1.jpg

◎译  名 偶然与设想 / 偶然与设想之轮(港) / 命运与空想之轮 / Wheel of Fortune and Fantasy
◎片  名 偶然と想像
◎年  代 2021
◎产  地 日本
◎类  别 剧情 / 恋爱
◎语  言 日语
◎上映日期 2021-03-04(柏林电影节) / 2021-12-17(日本)
◎IMDb链接 https://www.imdb.com/title/tt14034966/
◎豆瓣评分 8.3/10 (53664人评价)
◎豆瓣链接 https://movie.douban.com/subject/35360296/
◎片  长 121分钟
◎导  演 滨口龙介 Ry?suke Hamaguchi
◎编  剧 滨口龙介 Ry?suke Hamaguchi
◎演  员 古川琴音 Kotone Furukawa
       涩川清彦 Kiyohiko Shibukawa
       占部屋子 Fusako Urabe
       中岛步 Ayumu Nakajima
       玄理 Hyunri
       森郁月 Katsuki Mori
       甲斐翔真 Shouma Kai
       河井青叶 Aoba Kawai
       飯岡幸子 Yukiko Iioka
       徐贤先 Hyeon Seon Seo
◎简  介
  影片由三个短片组成——《魔法(比魔法更不逼真)》《开着的门》《再来一次》。女性脚色的多重性和镜像性是滨口之前的作品中的主题,在他的新作《偶然与设想》中也是如此。前作《欢乐时光》和《夜以继日》,从字面上看,很有小说的味道,而《偶然与设想》则可以说是一部短篇小说集。叙事节奏 更强化了这一印象:三集,每集围绕一个女性脚色展开,又分为三幕。三个短片报告了一个意想不到的三角恋、一场得逞的引诱和一个因误解而相遇的故事。虽然零星,但仍连结了有机的叙事流程,甚至还夸大了这一点。虽然大部分的行动都发生在一个空间里,而且只要两个演员介入,这部电影却不让人感觉像一出室内剧。这不但仅是由于对话的原因,还在于其复杂的时空概念,最初一集几近酿成了科幻片。我们所见证的时辰都与动人的普遍命运相连,以挑选、遗憾、欺骗和偶合为标志,它们是影片实在的配角。
◎获奖情况 (共6项)
  第71届柏林国际电影节 (2021)
  金熊奖 最好影片(提名)
   └──滨口龙介
  银熊奖 评审团大奖
   └──滨口龙介
  泰迪熊奖 最好电影(提名)
   └──滨口龙介
  第15届亚洲电影大奖 (2021)
  最好电影(提名)
  最好导演(提名)
   └──滨口龙介
  第56届美国国家影评人协会奖 (2022)
  最好导演
   └──滨口龙介
  1. ##### MediaInfo ######
  2. General
  3. Unique ID                                : 258195324493051869833892116664067015351 (0xC23E9C56746A653932645A7A586FC2B7)
  4. Complete name                            : Wheel.of.Fortune.and.Fantasy.2021.1080p.WEB-DL.AAC2.0.H.264-CTRLWEB.mkv
  5. Format                                   : Matroska
  6. Format version                           : Version 4
  7. File size                                : 3.10 GiB
  8. Duration                                 : 2 h 1 min
  9. Overall bit rate                         : 3 664 kb/s
  10. Encoded date                             : UTC 2022-05-21 11:50:42
  11. Writing application                      : mkvmerge v65.0.0 ('Too Much') 64-bit
  12. Writing library                          : libebml v1.4.2 + libmatroska v1.6.4
  13. Video
  14. ID                                       : 1
  15. Format                                   : AVC
  16. Format/Info                              : Advanced Video Codec
  17. Format profile                           : [email]High@L4.1[/email]
  18. Format settings                          : CABAC / 1 Ref Frames
  19. Format settings, CABAC                   : Yes
  20. Format settings, Reference frames        : 1 frame
  21. Format settings, GOP                     : M=1, N=60
  22. Codec ID                                 : V_MPEG4/ISO/AVC
  23. Duration                                 : 2 h 1 min
  24. Bit rate mode                            : Constant
  25. Bit rate                                 : 3 536 kb/s
  26. Nominal bit rate                         : 4 000 kb/s
  27. Width                                    : 1 920 pixels
  28. Height                                   : 1 080 pixels
  29. Display aspect ratio                     : 16:9
  30. Frame rate mode                          : Constant
  31. Frame rate                               : 29.970 (30000/1001/53875) FPS
  32. Color space                              : YUV
  33. Chroma subsampling                       : 4:2:0
  34. Bit depth                                : 8 bits
  35. Scan type                                : Progressive
  36. Bits/(Pixel*Frame)                       : 0.057
  37. Stream size                              : 2.99 GiB (96%)
  38. Language                                 : English
  39. Default                                  : Yes
  40. Forced                                   : No
  41. Audio
  42. ID                                       : 2
  43. Format                                   : AAC LC
  44. Format/Info                              : Advanced Audio Codec Low Complexity
  45. Codec ID                                 : A_AAC-2
  46. Duration                                 : 2 h 1 min
  47. Bit rate                                 : 125 kb/s
  48. Channel(s)                               : 2 channels
  49. Channel layout                           : L R
  50. Sampling rate                            : 48.0 kHz
  51. Frame rate                               : 46.875 FPS (1024 SPF)
  52. Compression mode                         : Lossy
  53. Stream size                              : 109 MiB (3%)
  54. Title                                    : Japanese
  55. Language                                 : Japanese
  56. Default                                  : Yes
  57. Forced                                   : No
  58. Text #1
  59. ID                                       : 3
  60. Format                                   : UTF-8
  61. Codec ID                                 : S_TEXT/UTF8
  62. Codec ID/Info                            : UTF-8 Plain Text
  63. Duration                                 : 1 h 59 min
  64. Bit rate                                 : 47 b/s
  65. Count of elements                        : 1617
  66. Stream size                              : 41.1 KiB (0%)
  67. Title                                    : Chinese Simplified
  68. Language                                 : Chinese
  69. Default                                  : Yes
  70. Forced                                   : No
  71. Text #2
  72. ID                                       : 4
  73. Format                                   : UTF-8
  74. Codec ID                                 : S_TEXT/UTF8
  75. Codec ID/Info                            : UTF-8 Plain Text
  76. Duration                                 : 1 h 59 min
  77. Bit rate                                 : 47 b/s
  78. Count of elements                        : 1617
  79. Stream size                              : 41.1 KiB (0%)
  80. Title                                    : Chinese Traditional
  81. Language                                 : Chinese
  82. Default                                  : Yes
  83. Forced                                   : No
复制代码


偶然与设想[中笔墨幕].Wheel.of.Fortune.and.Fantasy.2021.1080p.WEB-DL.AAC2.0.H.264-CTRLWEB 3.10GB-2.jpeg
偶然与设想[中笔墨幕].Wheel.of.Fortune.and.Fantasy.2021.1080p.WEB-DL.AAC2.0.H.264-CTRLWEB 3.10GB-3.jpeg
偶然与设想[中笔墨幕].Wheel.of.Fortune.and.Fantasy.2021.1080p.WEB-DL.AAC2.0.H.264-CTRLWEB 3.10GB-4.jpeg
偶然与设想[中笔墨幕].Wheel.of.Fortune.and.Fantasy.2021.1080p.WEB-DL.AAC2.0.H.264-CTRLWEB 3.10GB-5.jpeg
偶然与设想[中笔墨幕].Wheel.of.Fortune.and.Fantasy.2021.1080p.WEB-DL.AAC2.0.H.264-CTRLWEB 3.10GB-6.jpeg
偶然与设想[中笔墨幕].Wheel.of.Fortune.and.Fantasy.2021.1080p.WEB-DL.AAC2.0.H.264-CTRLWEB 3.10GB-7.jpeg










回复

使用道具 举报

懒得打字嘛,点击右侧快捷回复 【右侧内容,后台自定义】
您需要登录后才可以回帖 登录 | 立即加入

本版积分规则

Archiver| |网站地图

Copyright © 2024 Comsenz Inc. Powered by 蓝光电影网

本站内容由用户自主分享和转载自互联网,转载目的在于传递更多信息,并不代表本网赞同其观点和对其真实性负责。

如有侵权、违反国家法律政策行为,请联系我们,我们会第一时间及时清除和处理!

举报反馈邮箱:4k1080.com@gmail.com

快速回复 返回顶部 返回列表