找回密码

查看: 1270|回复: 0

[剧情] 偶然与想象 Wheel.of.Fortune.and.Fantasy.2021.JAPANESE.1080p.BluRay.x264.DDP5.1-EA 11.82GB

[复制链接]
蓝光币
1971
发表于 2022-1-10 09:04:50 | 显示全部楼层 |阅读模式


◎译  名 偶然与设想/Wheel of Fortune and Fantasy/偶然与设想之轮(港)/命运与空想之轮
◎片  名 偶然と想像
◎年  代 2021
◎产  地 日本
◎类  别 剧情 / 恋爱
◎语  言 日语
◎上映日期 2021-03-04(柏林电影节) / 2021-12-17(日本)
◎豆瓣评分 8.4/10 from 32336 users
◎豆瓣链接 https://movie.douban.com/subject/35360296/
◎片  长 121分钟
◎导  演 滨口龙介 Ry?suke Hamaguchi
◎编  剧 滨口龙介 Ry?suke Hamaguchi
◎主  演 古川琴音 Kotone Furukawa
       涩川清彦 Kiyohiko Shibukawa
       占部屋子 Fusako Urabe
       中岛步 Ayumu Nakajima
       玄理 Hyunri
       森郁月 Katsuki Mori
       甲斐翔真 Shouma Kai
       河井青叶 Aoba Kawai
◎标  签 日本 | 滨口龙介 | 日本电影 | 2021 | 剧情 | 短片集 | 柏林电影节 | 日影
◎简  介


  影片由三个短片组成——《魔法(比魔法更不逼真)》《开着的门》《再来一次》。女性脚色的多重性和镜像性是滨口之前的作品中的主题,在他的新作《偶然与设想》中也是如此。前作《欢乐时光》和《夜以继日》,从字面上看,很有小说的味道,而《偶然与设想》则可以说是一部短篇小说集。叙事节奏 更强化了这一印象:三集,每集围绕一个女性脚色展开,又分为三幕。三个短片报告了一个意想不到的三角恋、一场得逞的引诱和一个因误解而相遇的故事。虽然零星,但仍连结了有机的叙事流程,甚至还夸大了这一点。虽然大部分的行动都发生在一个空间里,而且只要两个演员介入,这部电影却不让人感觉像一出室内剧。这不但仅是由于对话的原因,还在于其复杂的时空概念,最初一集几近酿成了科幻片。我们所见证的时辰都与动人的普遍命运相连,以挑选、遗憾、欺骗和偶合为标志,它们是影片实在的配角。
◎获奖情况
  第71届柏林国际电影节 ?(2021)
  金熊奖最好影片(提名) 滨口龙介
  银熊奖评审团大奖 滨口龙介
  泰迪熊奖最好电影(提名) 滨口龙介
  
  第15届亚洲电影大奖 ?(2021)
  最好电影(提名)
  最好导演(提名) 滨口龙介
  
  第56届美国国家影评人协会奖 ?(2022)
  最好导演 滨口龙介
  1. Video
  2. ID                                       : 1
  3. Format                                   : AVC
  4. Format/Info                              : Advanced Video Codec
  5. Format profile                           : [email protected]
  6. Format settings                          : CABAC / 4 Ref Frames
  7. Format settings, CABAC                   : Yes
  8. Format settings, Reference frames        : 4 frames
  9. Codec ID                                 : V_MPEG4/ISO/AVC
  10. Duration                                 : 2 h 1 min
  11. Bit rate                                 : 12.9 Mb/s
  12. Width                                    : 1 920 pixels
  13. Height                                   : 1 080 pixels
  14. Display aspect ratio                     : 16:9
  15. Frame rate mode                          : Constant
  16. Frame rate                               : 23.976 (24000/1001/189150) FPS
  17. Color space                              : YUV
  18. Chroma subsampling                       : 4:2:0
  19. Bit depth                                : 8 bits
  20. Scan type                                : Progressive
  21. Bits/(Pixel*Frame)                       : 0.259
  22. Stream size                              : 10.9 GiB (93%)
  23. Title                                    : -EA
  24. Writing library                          : x264 core 164 r3075+55M 97d28bb t_mod_New [(8 & 10)[email protected] X86_64]
  25. Encoding settings                        : cabac=1 / ref=4 / deblock=1:-3:-3 / analyse=0x3:0x133 / me=umh / subme=10 / psy=1 / fade_compensate=0.00 / psy_rd=0.97:0.00 / mixed_ref=1 / me_range=32 / chroma_me=1 / trellis=2 / 8x8dct=1 / cqm=0 / deadzone=21,11 / fast_pskip=0 / chroma_qp_offset=-2 / threads=18 / lookahead_threads=3 / sliced_threads=0 / nr=0 / decimate=0 / interlaced=0 / bluray_compat=0 / constrained_intra=0 / fgo=0 / bframes=8 / b_pyramid=2 / b_adapt=2 / b_bias=0 / direct=3 / weightb=1 / open_gop=0 / weightp=2 / keyint=240 / keyint_min=23 / scenecut=40 / intra_refresh=0 / rc_lookahead=60 / rc=crf / mbtree=0 / crf=17.1500 / qcomp=0.65 / qpmin=0:0:0 / qpmax=69:69:69 / qpstep=4 / vbv_maxrate=62500 / vbv_bufsize=78125 / crf_max=0.0 / nal_hrd=none / filler=0 / ip_ratio=1.35 / pb_ratio=1.25 / aq=3:0.85 / aq-sensitivity=10.00 / aq-factor=1.00:1.00:1.00 / aq2=0 / aq3=0
  26. Language                                 : Japanese
  27. Default                                  : Yes
  28. Forced                                   : No
  29. Color range                              : Limited
  30. Color primaries                          : BT.709
  31. Transfer characteristics                 : BT.709
  32. Matrix coefficients                      : BT.709
  33. Audio
  34. ID                                       : 2
  35. Format                                   : E-AC-3
  36. Format/Info                              : Enhanced AC-3
  37. Commercial name                          : Dolby Digital Plus
  38. Codec ID                                 : A_EAC3
  39. Duration                                 : 2 h 1 min
  40. Bit rate mode                            : Constant
  41. Bit rate                                 : 1 023 kb/s
  42. Channel(s)                               : 6 channels
  43. Channel layout                           : L R C LFE Ls Rs
  44. Sampling rate                            : 48.0 kHz
  45. Frame rate                               : 93.750 FPS (512 SPF)
  46. Compression mode                         : Lossy
  47. Stream size                              : 889 MiB (7%)
  48. Language                                 : Japanese
  49. Service kind                             : Complete Main
  50. Default                                  : Yes
  51. Forced                                   : No
  52. Text #1
  53. ID                                       : 3
  54. Format                                   : UTF-8
  55. Codec ID                                 : S_TEXT/UTF8
  56. Codec ID/Info                            : UTF-8 Plain Text
  57. Duration                                 : 1 h 58 min
  58. Bit rate                                 : 47 b/s
  59. Count of elements                        : 1464
  60. Stream size                              : 41.7 KiB (0%)
  61. Title                                    : srt
  62. Language                                 : English
  63. Default                                  : Yes
  64. Forced                                   : No
  65. Text #2
  66. ID                                       : 4
  67. Format                                   : PGS
  68. Muxing mode                              : zlib
  69. Codec ID                                 : S_HDMV/PGS
  70. Codec ID/Info                            : Picture based subtitle format used on BDs/HD-DVDs
  71. Duration                                 : 1 h 58 min
  72. Bit rate                                 : 30.5 kb/s
  73. Count of elements                        : 2928
  74. Stream size                              : 25.9 MiB (0%)
  75. Title                                    : sup
  76. Language                                 : English
  77. Default                                  : No
  78. Forced                                   : No
  79. Menu
  80. 00:00:00.000                             : :Chapter 01
  81. 00:13:40.611                             : :Chapter 02
  82. 00:29:00.906                             : :Chapter 03
  83. 00:29:50.372                             : :Chapter 04
  84. 00:37:43.386                             : :Chapter 05
  85. 00:46:09.558                             : :Chapter 06
  86. 01:11:50.890                             : :Chapter 07
  87. 01:13:12.096                             : :Chapter 08
  88. 01:19:54.748                             : :Chapter 09
  89. 01:28:39.606                             : :Chapter 10
  90. 01:50:10.729                             : :Chapter 11
  91. 01:59:39.339                             : :Chapter 12
  92. 02:01:25.445                             : :Chapter 13
复制代码







                                       
                                       

                                       
                                       
                                       




回复

使用道具 举报

懒得打字嘛,点击右侧快捷回复 【右侧内容,后台自定义】
您需要登录后才可以回帖 登录 | 立即加入

本版积分规则

Archiver| |网站地图

Copyright © 2024 Comsenz Inc. Powered by 蓝光电影网

本站内容由用户自主分享和转载自互联网,转载目的在于传递更多信息,并不代表本网赞同其观点和对其真实性负责。

如有侵权、违反国家法律政策行为,请联系我们,我们会第一时间及时清除和处理!

举报反馈邮箱:4k1080.com@gmail.com

快速回复 返回顶部 返回列表