找回密码

蓝光电影网

查看: 188|回复: 7

[10bit.SDR] 魔发奇缘/缠结 Tangled.2010.2160p.BluRay.x265.10bit.SDR.TrueHD.7.1.Atmos-SWTYBLZ 16.41GB

[复制链接]

 成长值: 23245

发表于 2019-10-27 10:46:01 | 显示全部楼层 |阅读模式
魔发奇缘/缠结 Tangled.2010.2160p.BluRay.x265.10bit.SDR.TrueHD.7.1.Atmos-SWTYBLZ 16.41GB-1.png

译  名 魔发奇缘 / 缠结 / 莴苣公主 / 长发公主 / 长发姑娘
片  名 Tangled
年  代 2010
产  地 美国
类  别 喜剧 / 动画 / 冒险
语  言 英语
上映日期 2010-11-24(美国) / 2011-02-03(中国台湾)
IMDb评分  7.7/10 from 374579 users
IMDb链接  https://www.imdb.com/title/tt0398286
豆瓣评分 8.2/10 from 167650 users
豆瓣链接 https://movie.douban.com/subject/1863766/
片  长 100分钟
导  演 内森·格雷诺 Nathan Greno / 拜伦·霍华德 Byron Howard
编  剧 雅各布·格林 Jacob Grimm / 威廉·格林 Wilhelm Grimm / 丹·福格尔曼 Dan Fogelman
主  演 曼迪·摩尔 Mandy Moore
       扎克瑞·莱维 Zachary Levi
       唐纳·墨菲 Donna Murphy
       朗·普尔曼 Ron Perlman
       迈克·康纳·盖尼 M.C. Gainey
       杰弗里·塔伯 Jeffrey Tambor
       布拉德·加内特 Brad Garrett
       保罗·F·汤普金斯 Paul F. Tompkins
       理查德·基尔 Richard Kiel
       德莱尼·罗斯·斯坦 Delaney Rose Stein
       内森·格雷诺 Nathan Greno
       拜伦·霍华德 Byron Howard
       蒂姆·梅尔滕斯 Tim Mertens


标  签 动画 | 迪斯尼 | 童话 | 美国 | 爱情 | 迪士尼 | 喜剧 | 2010

简  介  

  女巫Gothel(唐纳·墨菲 Donna Murphy 配音)靠着一朵神奇的金色花朵保持青春。王后重病,国王派人找到了这朵金花给王后治病,王后病愈,生下了一个一头金发的小女孩Rapunzel(曼迪·摩尔 Mandy Moore 配音)。女巫失去金花,却发现小公主的金发有 着同样的魔力,因此她偷走Rapunzel,把她关到森林中的一座没有楼梯高塔之上。
  十八年后,Rapunzel在女巫的抚养下长成一个拥有长长金发的美人,她越发渴望外面的世界,女巫为了自己青春永驻,想方设法把Rapunzel留在身边。一天,窃贼Flynn(扎克瑞·莱维 Zachary Levi 配音)盗取公主王冠后逃入森林,在好奇心趋势下登上了这座神秘的高塔,误打误撞见到了塔中的长发公主。在Flynn的陪伴下,Rapunzel走下高塔,开始了人生和爱情的大冒险。
  本片为迪斯尼公司第50部动画长片,改编自经典格林童话《长发公主》,由迪士尼元老级画师格兰·基恩首次担任动画片导演。

获奖情况  

  第83届奥斯卡金像奖(2011)
  最佳原创歌曲(提名) 格伦·斯莱特 / 艾伦·曼肯

  第68届金球奖(2011)
  电影类 最佳动画长片(提名)
  电影类 最佳原创歌曲(提名) 格伦·斯莱特 / 艾伦·曼肯

  第38届动画安妮奖(2011)
  最佳动画长片(提名)
  最佳编剧(提名) 丹·福格尔曼

  第9届华盛顿影评人协会奖(2010)
  最佳动画片(提名)

  第15届圣地亚哥影评人协会奖(2010)
  最佳动画片(提名)

  第23届芝加哥影评人协会奖(2010)
  最佳动画片(提名)

  第10届凤凰城影评人协会奖(2010)
  最佳原创歌曲(提名) 格伦·斯莱特 / 艾伦·曼肯
  最佳动画片(提名)

  第13届美国青少年选择奖(2011)
  最佳动画配音(提名) 扎克瑞·莱维
  1. Video
  2. ID                                       : 1
  3. Format                                   : HEVC
  4. Format/Info                              : High Efficiency Video Coding
  5. Format profile                           : Main High@L4@High
  6. Codec ID                                 : V_MPEGH/ISO/HEVC
  7. Duration                                 : 1 h 40 min
  8. Bit rate                                 : 14.8 Mb/s
  9. Width                                    : 3 840 pixels
  10. Height                                   : 2 160 pixels
  11. Display aspect ratio                     : 16:9
  12. Frame rate mode                          : Constant
  13. Frame rate                               : 23.976 (24000/1001) FPS
  14. Color space                              : YUV
  15. Chroma subsampling                       : 4:2:0
  16. Bit depth                                : 10 bits
  17. Bits/(Pixel*Frame)                       : 0.074
  18. Stream size                              : 10.4 GiB (64%)
  19. Title                                    : Tangled.2010.2160p.BluRay.x265.10bit.SDR.TrueHD.7.1.Atmos-SWTYBLZ
  20. Writing library                          : x265 3.0ed72af837053:[Windows][GCC 8.2.0][64 bit] 10bit
  21. Encoding settings                        : cpuid=1111039 / frame-threads=16 / numa-pools=44,44 / wpp / no-pmode / no-pme / no-psnr / no-ssim / log-level=2 / input-csp=1 / input-res=3840x2160 / interlace=0 / total-frames=144279 / level-idc=51 / high-tier=1 / uhd-bd=0 / ref=3 / no-allow-non-conformance / repeat-headers / annexb / aud / hrd / info / hash=0 / no-temporal-layers / no-open-gop / min-keyint=1 / keyint=24 / gop-lookahead=0 / bframes=6 / b-adapt=2 / b-pyramid / bframe-bias=0 / rc-lookahead=25 / lookahead-slices=4 / scenecut=40 / radl=0 / no-splice / no-intra-refresh / ctu=64 / min-cu-size=8 / no-rect / no-amp / max-tu-size=32 / tu-inter-depth=1 / tu-intra-depth=1 / limit-tu=0 / rdoq-level=0 / dynamic-rd=0.00 / no-ssim-rd / signhide / no-tskip / nr-intra=0 / nr-inter=0 / no-constrained-intra / strong-intra-smoothing / max-merge=2 / limit-refs=3 / no-limit-modes / me=1 / subme=2 / merange=57 / temporal-mvp / weightp / no-weightb / no-analyze-src-pics / deblock=1:1 / no-sao / no-sao-non-deblock / rd=3 / no-early-skip / rskip / no-fast-intra / no-tskip-fast / no-cu-lossless / no-b-intra / no-splitrd-skip / rdpenalty=0 / psy-rd=0.40 / psy-rdoq=0.00 / no-rd-refine / no-lossless / cbqpoffs=0 / crqpoffs=0 / rc=crf / crf=14.0 / qcomp=0.60 / qpstep=4 / stats-write=0 / stats-read=0 / vbv-maxrate=160000 / vbv-bufsize=160000 / vbv-init=0.9 / crf-max=0.0 / crf-min=0.0 / ipratio=1.40 / pbratio=1.30 / aq-mode=1 / aq-strength=0.40 / cutree / zone-count=0 / no-strict-cbr / qg-size=32 / no-rc-grain / qpmax=69 / qpmin=0 / no-const-vbv / sar=1 / overscan=0 / videoformat=5 / range=0 / colorprim=2 / transfer=2 / colormatrix=2 / chromaloc=0 / display-window=0 / max-cll=0,0 / min-luma=0 / max-luma=1023 / log2-max-poc-lsb=8 / vui-timing-info / vui-hrd-info / slices=1 / opt-qp-pps / opt-ref-list-length-pps / no-multi-pass-opt-rps / scenecut-bias=0.05 / no-opt-cu-delta-qp / no-aq-motion / no-hdr / no-hdr-opt / no-dhdr10-opt / no-idr-recovery-sei / analysis-reuse-level=5 / scale-factor=0 / refine-intra=0 / refine-inter=0 / refine-mv=0 / refine-ctu-distortion=0 / no-limit-sao / ctu-info=0 / no-lowpass-dct / refine-analysis-type=0 / copy-pic=1 / max-ausize-factor=1.0 / no-dynamic-refine / no-single-sei / no-hevc-aq / qp-adaptation-range=1.00
  22. Default                                  : Yes
  23. Forced                                   : No

  24. Audio #1
  25. ID                                       : 2
  26. Format                                   : MLP FBA 16-ch
  27. Format/Info                              : Meridian Lossless Packing FBA with 16-channel presentation
  28. Commercial name                          : Dolby TrueHD with Dolby Atmos
  29. Codec ID                                 : A_TRUEHD
  30. Duration                                 : 1 h 40 min
  31. Bit rate mode                            : Variable
  32. Bit rate                                 : 7 753 kb/s
  33. Maximum bit rate                         : 9 480 kb/s
  34. Channel(s)                               : 8 channels
  35. Channel layout                           : L R C LFE Ls Rs Lb Rb
  36. Sampling rate                            : 48.0 kHz
  37. Frame rate                               : 1 200.000 FPS (40 SPF)
  38. Compression mode                         : Lossless
  39. Stream size                              : 5.43 GiB (33%)
  40. Title                                    : Tangled.2010.2160p.BluRay.x265.10bit.SDR.TrueHD.7.1.Atmos-SWTYBLZ
  41. Language                                 : English
  42. Default                                  : Yes
  43. Forced                                   : No
  44. Number of dynamic objects                : 13
  45. Bed channel count                        : 1 channel
  46. Bed channel configuration                : LFE

  47. Audio #2
  48. ID                                       : 3
  49. Format                                   : AC-3
  50. Format/Info                              : Audio Coding 3
  51. Commercial name                          : Dolby Digital
  52. Codec ID                                 : A_AC3
  53. Duration                                 : 1 h 40 min
  54. Bit rate mode                            : Constant
  55. Bit rate                                 : 640 kb/s
  56. Channel(s)                               : 6 channels
  57. Channel layout                           : L R C LFE Ls Rs
  58. Sampling rate                            : 48.0 kHz
  59. Frame rate                               : 31.250 FPS (1536 SPF)
  60. Bit depth                                : 16 bits
  61. Compression mode                         : Lossy
  62. Stream size                              : 459 MiB (3%)
  63. Title                                    : Tangled.2010.2160p.BluRay.x265.10bit.SDR.TrueHD.7.1.Atmos-SWTYBLZ
  64. Language                                 : English
  65. Service kind                             : Complete Main
  66. Default                                  : No
  67. Forced                                   : No

  68. Text #1
  69. ID                                       : 4
  70. Format                                   : UTF-8
  71. Codec ID                                 : S_TEXT/UTF8
  72. Codec ID/Info                            : UTF-8 Plain Text
  73. Duration                                 : 1 h 39 min
  74. Bit rate                                 : 42 b/s
  75. Count of elements                        : 918
  76. Stream size                              : 30.8 KiB (0%)
  77. Title                                    : English-SRT
  78. Language                                 : English
  79. Default                                  : Yes
  80. Forced                                   : No

  81. Text #2
  82. ID                                       : 5
  83. Format                                   : PGS
  84. Muxing mode                              : zlib
  85. Codec ID                                 : S_HDMV/PGS
  86. Codec ID/Info                            : Picture based subtitle format used on BDs/HD-DVDs
  87. Duration                                 : 1 h 39 min
  88. Bit rate                                 : 34.2 kb/s
  89. Count of elements                        : 2538
  90. Stream size                              : 24.3 MiB (0%)
  91. Title                                    : English-PGS
  92. Language                                 : English
  93. Default                                  : No
  94. Forced                                   : No

  95. Text #3
  96. ID                                       : 6
  97. Format                                   : PGS
  98. Muxing mode                              : zlib
  99. Codec ID                                 : S_HDMV/PGS
  100. Codec ID/Info                            : Picture based subtitle format used on BDs/HD-DVDs
  101. Duration                                 : 1 h 39 min
  102. Bit rate                                 : 28.2 kb/s
  103. Count of elements                        : 1850
  104. Stream size                              : 20.0 MiB (0%)
  105. Title                                    : French-PGS
  106. Language                                 : French
  107. Default                                  : No
  108. Forced                                   : No

  109. Text #4
  110. ID                                       : 7
  111. Format                                   : PGS
  112. Muxing mode                              : zlib
  113. Codec ID                                 : S_HDMV/PGS
  114. Codec ID/Info                            : Picture based subtitle format used on BDs/HD-DVDs
  115. Duration                                 : 1 h 39 min
  116. Bit rate                                 : 25.1 kb/s
  117. Count of elements                        : 1814
  118. Stream size                              : 17.8 MiB (0%)
  119. Title                                    : Spanish-PGS
  120. Language                                 : Spanish
  121. Default                                  : No
  122. Forced                                   : No

  123. Text #5
  124. ID                                       : 8
  125. Format                                   : PGS
  126. Muxing mode                              : zlib
  127. Codec ID                                 : S_HDMV/PGS
  128. Codec ID/Info                            : Picture based subtitle format used on BDs/HD-DVDs
  129. Duration                                 : 1 h 30 min
  130. Bit rate                                 : 24.4 kb/s
  131. Count of elements                        : 2014
  132. Stream size                              : 15.7 MiB (0%)
  133. Title                                    : Japanese-PGS
  134. Language                                 : Japanese
  135. Default                                  : No
  136. Forced                                   : No

  137. Menu
  138. 00:00:00.000                             : en:Chapter 01
  139. 00:08:20.958                             : en:Chapter 02
  140. 00:15:43.275                             : en:Chapter 03
  141. 00:24:41.021                             : en:Chapter 04
  142. 00:34:41.788                             : en:Chapter 05
  143. 00:42:30.881                             : en:Chapter 06
  144. 00:50:25.939                             : en:Chapter 07
  145. 00:59:21.641                             : en:Chapter 08
  146. 01:10:35.522                             : en:Chapter 09
  147. 01:19:23.216                             : en:Chapter 10
  148. 01:25:22.033                             : en:Chapter 11
  149. 01:31:20.808                             : en:Chapter 12
复制代码

魔发奇缘/缠结 Tangled.2010.2160p.BluRay.x265.10bit.SDR.TrueHD.7.1.Atmos-SWTYBLZ 16.41GB-2.png 魔发奇缘/缠结 Tangled.2010.2160p.BluRay.x265.10bit.SDR.TrueHD.7.1.Atmos-SWTYBLZ 16.41GB-3.png 魔发奇缘/缠结 Tangled.2010.2160p.BluRay.x265.10bit.SDR.TrueHD.7.1.Atmos-SWTYBLZ 16.41GB-4.png 魔发奇缘/缠结 Tangled.2010.2160p.BluRay.x265.10bit.SDR.TrueHD.7.1.Atmos-SWTYBLZ 16.41GB-5.png 魔发奇缘/缠结 Tangled.2010.2160p.BluRay.x265.10bit.SDR.TrueHD.7.1.Atmos-SWTYBLZ 16.41GB-6.png 魔发奇缘/缠结 Tangled.2010.2160p.BluRay.x265.10bit.SDR.TrueHD.7.1.Atmos-SWTYBLZ 16.41GB-7.png 104536j5wi5artaa115axo.png







回复

使用道具 举报

发表于 2019-10-27 14:16:50 | 显示全部楼层
,动画片啊,居然是10bit的。还是4k的。。。
回复 支持 反对

使用道具 举报

发表于 2019-10-27 16:36:05 | 显示全部楼层
谢谢分享~~~~~~~~~~~~~
回复

使用道具 举报

发表于 2019-10-27 20:28:16 | 显示全部楼层
谢谢分享。。。。
回复

使用道具 举报

发表于 2019-10-27 22:11:17 | 显示全部楼层
谢谢分享···
回复 支持 反对

使用道具 举报

发表于 2019-10-29 17:55:43 来自手机 | 显示全部楼层
感谢楼主分享
回复 支持 反对

使用道具 举报

发表于 2019-11-5 20:36:05 | 显示全部楼层
楼主发贴辛苦了,谢谢楼主分享!我觉得蓝光电影网是注册对了!
回复 支持 反对

使用道具 举报

发表于 2019-11-5 20:37:17 | 显示全部楼层

感谢楼主的无私分享!要想蓝光电影网好 就靠你我他
回复 支持 反对

使用道具 举报

懒得打字嘛,点击右侧快捷回复 【右侧内容,后台自定义】
您需要登录后才可以回帖 登录 | 立即加入

本版积分规则

现在加入蓝光电影网,注册一个账号

QQ| 手机版|小黑屋| 蓝光电影网 |网站地图 

Copyright © 2015-2019 Comsenz Inc.  Template by 蓝光电影论坛 All Rights Reserved.

Powered by 蓝光电影网 X3.4

特别声明:本站所有资源均由网上收集而来,版权归原影音公司所有,如果侵犯了你的权益,请通知我们,我们会及时删除侵权内容.

快速回复 返回顶部 返回列表