找回密码

蓝光电影网

查看: 423|回复: 9

[10bit.HDR] 魔发奇缘/缠结 Tangled.2010.2160p.UHD.BluRay.X265.10bit.HDR.TrueHD.7.1.Atmos-TERMiNAL 11.74GB

[复制链接]

 成长值: 23245

发表于 2019-10-26 17:25:41 | 显示全部楼层 |阅读模式
魔发奇缘/缠结 Tangled.2010.2160p.UHD.BluRay.X265.10bit.HDR.TrueHD.7.1.Atmos-TERMiNAL 11.74GB-1.png

译  名 魔发奇缘 / 缠结 / 莴苣公主 / 长发公主 / 长发姑娘
片  名 Tangled
年  代 2010
产  地 美国
类  别 喜剧 / 动画 / 冒险
语  言 英语
上映日期 2010-11-24(美国) / 2011-02-03(中国台湾)
IMDb评分  7.7/10 from 374579 users
IMDb链接  https://www.imdb.com/title/tt0398286
豆瓣评分 8.2/10 from 167650 users
豆瓣链接 https://movie.douban.com/subject/1863766/
片  长 100分钟
导  演 内森·格雷诺 Nathan Greno / 拜伦·霍华德 Byron Howard
编  剧 雅各布·格林 Jacob Grimm / 威廉·格林 Wilhelm Grimm / 丹·福格尔曼 Dan Fogelman
主  演 曼迪·摩尔 Mandy Moore
       扎克瑞·莱维 Zachary Levi
       唐纳·墨菲 Donna Murphy
       朗·普尔曼 Ron Perlman
       迈克·康纳·盖尼 M.C. Gainey
       杰弗里·塔伯 Jeffrey Tambor
       布拉德·加内特 Brad Garrett
       保罗·F·汤普金斯 Paul F. Tompkins
       理查德·基尔 Richard Kiel
       德莱尼·罗斯·斯坦 Delaney Rose Stein
       内森·格雷诺 Nathan Greno
       拜伦·霍华德 Byron Howard
       蒂姆·梅尔滕斯 Tim Mertens


标  签 动画 | 迪斯尼 | 童话 | 美国 | 爱情 | 迪士尼 | 喜剧 | 2010

简  介  

  女巫Gothel(唐纳·墨菲 Donna Murphy 配音)靠着一朵神奇的金色花朵保持青春。王后重病,国王派人找到了这朵金花给王后治病,王后病愈,生下了一个一头金发的小女孩Rapunzel(曼迪·摩尔 Mandy Moore 配音)。女巫失去金花,却发现小公主的金发有 着同样的魔力,因此她偷走Rapunzel,把她关到森林中的一座没有楼梯高塔之上。
  十八年后,Rapunzel在女巫的抚养下长成一个拥有长长金发的美人,她越发渴望外面的世界,女巫为了自己青春永驻,想方设法把Rapunzel留在身边。一天,窃贼Flynn(扎克瑞·莱维 Zachary Levi 配音)盗取公主王冠后逃入森林,在好奇心趋势下登上了这座神秘的高塔,误打误撞见到了塔中的长发公主。在Flynn的陪伴下,Rapunzel走下高塔,开始了人生和爱情的大冒险。
  本片为迪斯尼公司第50部动画长片,改编自经典格林童话《长发公主》,由迪士尼元老级画师格兰·基恩首次担任动画片导演。

获奖情况  

  第83届奥斯卡金像奖(2011)
  最佳原创歌曲(提名) 格伦·斯莱特 / 艾伦·曼肯

  第68届金球奖(2011)
  电影类 最佳动画长片(提名)
  电影类 最佳原创歌曲(提名) 格伦·斯莱特 / 艾伦·曼肯

  第38届动画安妮奖(2011)
  最佳动画长片(提名)
  最佳编剧(提名) 丹·福格尔曼

  第9届华盛顿影评人协会奖(2010)
  最佳动画片(提名)

  第15届圣地亚哥影评人协会奖(2010)
  最佳动画片(提名)

  第23届芝加哥影评人协会奖(2010)
  最佳动画片(提名)

  第10届凤凰城影评人协会奖(2010)
  最佳原创歌曲(提名) 格伦·斯莱特 / 艾伦·曼肯
  最佳动画片(提名)

  第13届美国青少年选择奖(2011)
  最佳动画配音(提名) 扎克瑞·莱维
  1. Video
  2. ID                                       : 1
  3. Format                                   : HEVC
  4. Format/Info                              : High Efficiency Video Coding
  5. Format profile                           : Main High@L4@High
  6. HDR format                               : SMPTE ST 2086, HDR10 compatible
  7. Codec ID                                 : V_MPEGH/ISO/HEVC
  8. Duration                                 : 1 h 40 min
  9. Bit rate                                 : 8 068 kb/s
  10. Width                                    : 3 840 pixels
  11. Height                                   : 2 160 pixels
  12. Display aspect ratio                     : 16:9
  13. Frame rate mode                          : Constant
  14. Frame rate                               : 23.976 (24000/1001) FPS
  15. Color space                              : YUV
  16. Chroma subsampling                       : 4:2:0 (Type 2)
  17. Bit depth                                : 10 bits
  18. Bits/(Pixel*Frame)                       : 0.041
  19. Stream size                              : 5.65 GiB (49%)
  20. Writing library                          : x265 3.27fc1f6ef2b96:[Windows][GCC 6.3.0][64 bit] 10bit
  21. Encoding settings                        : cpuid=1111039 / frame-threads=4 / numa-pools=20 / wpp / no-pmode / no-pme / no-psnr / no-ssim / log-level=2 / input-csp=1 / input-res=3840x2160 / interlace=0 / total-frames=144279 / level-idc=51 / high-tier=1 / uhd-bd=1 / ref=4 / no-allow-non-conformance / repeat-headers / annexb / aud / hrd / info / hash=0 / no-temporal-layers / no-open-gop / min-keyint=1 / keyint=24 / gop-lookahead=0 / bframes=4 / b-adapt=2 / b-pyramid / bframe-bias=0 / rc-lookahead=25 / lookahead-slices=4 / scenecut=40 / radl=0 / no-splice / no-intra-refresh / ctu=64 / min-cu-size=8 / rect / no-amp / max-tu-size=32 / tu-inter-depth=1 / tu-intra-depth=1 / limit-tu=0 / rdoq-level=2 / dynamic-rd=0.00 / no-ssim-rd / signhide / no-tskip / nr-intra=0 / nr-inter=0 / no-constrained-intra / no-strong-intra-smoothing / max-merge=3 / limit-refs=3 / limit-modes / me=3 / subme=3 / merange=57 / temporal-mvp / no-frame-dup / no-hme / weightp / no-weightb / no-analyze-src-pics / deblock=-3:-3 / no-sao / no-sao-non-deblock / rd=4 / selective-sao=0 / no-early-skip / rskip / no-fast-intra / no-tskip-fast / no-cu-lossless / no-b-intra / no-splitrd-skip / rdpenalty=0 / psy-rd=2.00 / psy-rdoq=1.00 / no-rd-refine / no-lossless / cbqpoffs=0 / crqpoffs=0 / rc=crf / crf=17.0 / qcomp=0.60 / qpstep=4 / stats-write=0 / stats-read=0 / vbv-maxrate=160000 / vbv-bufsize=160000 / vbv-init=0.9 / crf-max=0.0 / crf-min=0.0 / ipratio=1.40 / pbratio=1.30 / aq-mode=1 / aq-strength=1.00 / cutree / zone-count=0 / no-strict-cbr / qg-size=32 / no-rc-grain / qpmax=69 / qpmin=0 / no-const-vbv / sar=1 / overscan=0 / videoformat=5 / range=0 / colorprim=9 / transfer=16 / colormatrix=9 / chromaloc=1 / chromaloc-top=2 / chromaloc-bottom=2 / display-window=0 / master-display=G(13250,34500)B(7500,3000)R(34000,16000)WP(15635,16450)L(10000000,1) / cll=0,0 / min-luma=0 / max-luma=1023 / log2-max-poc-lsb=8 / vui-timing-info / vui-hrd-info / slices=1 / no-opt-qp-pps / no-opt-ref-list-length-pps / no-multi-pass-opt-rps / scenecut-bias=0.05 / no-opt-cu-delta-qp / no-aq-motion / hdr / hdr-opt / no-dhdr10-opt / no-idr-recovery-sei / analysis-reuse-level=5 / scale-factor=0 / refine-intra=0 / refine-inter=0 / refine-mv=1 / refine-ctu-distortion=0 / no-limit-sao / ctu-info=0 / no-lowpass-dct / refine-analysis-type=0 / copy-pic=1 / max-ausize-factor=1.0 / no-dynamic-refine / no-single-sei / no-hevc-aq / no-svt / no-field / qp-adaptation-range=1.00
  22. Default                                  : Yes
  23. Forced                                   : No
  24. Color range                              : Limited
  25. Color primaries                          : BT.2020
  26. Transfer characteristics                 : PQ
  27. Matrix coefficients                      : BT.2020 non-constant
  28. Mastering display color primaries        : Display P3
  29. Mastering display luminance              : min: 0.0001 cd/m2, max: 1000 cd/m2

  30. Audio #1
  31. ID                                       : 2
  32. Format                                   : MLP FBA 16-ch
  33. Format/Info                              : Meridian Lossless Packing FBA with 16-channel presentation
  34. Commercial name                          : Dolby TrueHD with Dolby Atmos
  35. Codec ID                                 : A_TRUEHD
  36. Duration                                 : 1 h 40 min
  37. Bit rate mode                            : Variable
  38. Bit rate                                 : 7 753 kb/s
  39. Maximum bit rate                         : 9 480 kb/s
  40. Channel(s)                               : 8 channels
  41. Channel layout                           : L R C LFE Ls Rs Lb Rb
  42. Sampling rate                            : 48.0 kHz
  43. Frame rate                               : 1 200.000 FPS (40 SPF)
  44. Compression mode                         : Lossless
  45. Stream size                              : 5.43 GiB (47%)
  46. Language                                 : English
  47. Default                                  : Yes
  48. Forced                                   : No
  49. Number of dynamic objects                : 13
  50. Bed channel count                        : 1 channel
  51. Bed channel configuration                : LFE

  52. Audio #2
  53. ID                                       : 3
  54. Format                                   : AC-3
  55. Format/Info                              : Audio Coding 3
  56. Commercial name                          : Dolby Digital
  57. Codec ID                                 : A_AC3
  58. Duration                                 : 1 h 40 min
  59. Bit rate mode                            : Constant
  60. Bit rate                                 : 640 kb/s
  61. Channel(s)                               : 6 channels
  62. Channel layout                           : L R C LFE Ls Rs
  63. Sampling rate                            : 48.0 kHz
  64. Frame rate                               : 31.250 FPS (1536 SPF)
  65. Bit depth                                : 16 bits
  66. Compression mode                         : Lossy
  67. Stream size                              : 459 MiB (4%)
  68. Language                                 : English
  69. Service kind                             : Complete Main
  70. Default                                  : No
  71. Forced                                   : No

  72. Text #1
  73. ID                                       : 4
  74. Format                                   : PGS
  75. Muxing mode                              : zlib
  76. Codec ID                                 : S_HDMV/PGS
  77. Codec ID/Info                            : Picture based subtitle format used on BDs/HD-DVDs
  78. Duration                                 : 1 h 39 min
  79. Bit rate                                 : 34.2 kb/s
  80. Count of elements                        : 2538
  81. Stream size                              : 24.3 MiB (0%)
  82. Title                                    : SDH
  83. Language                                 : English
  84. Default                                  : No
  85. Forced                                   : No

  86. Text #2
  87. ID                                       : 5
  88. Format                                   : PGS
  89. Muxing mode                              : zlib
  90. Codec ID                                 : S_HDMV/PGS
  91. Codec ID/Info                            : Picture based subtitle format used on BDs/HD-DVDs
  92. Duration                                 : 1 h 39 min
  93. Bit rate                                 : 28.2 kb/s
  94. Count of elements                        : 1850
  95. Stream size                              : 20.0 MiB (0%)
  96. Language                                 : French
  97. Default                                  : No
  98. Forced                                   : No

  99. Text #3
  100. ID                                       : 6
  101. Format                                   : PGS
  102. Muxing mode                              : zlib
  103. Codec ID                                 : S_HDMV/PGS
  104. Codec ID/Info                            : Picture based subtitle format used on BDs/HD-DVDs
  105. Duration                                 : 1 h 39 min
  106. Bit rate                                 : 25.1 kb/s
  107. Count of elements                        : 1814
  108. Stream size                              : 17.8 MiB (0%)
  109. Language                                 : Spanish
  110. Default                                  : No
  111. Forced                                   : No

  112. Text #4
  113. ID                                       : 7
  114. Format                                   : PGS
  115. Muxing mode                              : zlib
  116. Codec ID                                 : S_HDMV/PGS
  117. Codec ID/Info                            : Picture based subtitle format used on BDs/HD-DVDs
  118. Duration                                 : 1 h 30 min
  119. Bit rate                                 : 24.4 kb/s
  120. Count of elements                        : 2014
  121. Stream size                              : 15.7 MiB (0%)
  122. Language                                 : Japanese
  123. Default                                  : No
  124. Forced                                   : No

  125. Menu
  126. 00:00:00.000                             : en:Chapter 01
  127. 00:08:20.958                             : en:Chapter 02
  128. 00:15:43.275                             : en:Chapter 03
  129. 00:24:41.021                             : en:Chapter 04
  130. 00:34:41.788                             : en:Chapter 05
  131. 00:42:30.881                             : en:Chapter 06
  132. 00:50:25.939                             : en:Chapter 07
  133. 00:59:21.641                             : en:Chapter 08
  134. 01:10:35.522                             : en:Chapter 09
  135. 01:19:23.216                             : en:Chapter 10
  136. 01:25:22.033                             : en:Chapter 11
  137. 01:31:20.808                             : en:Chapter 12
复制代码

魔发奇缘/缠结 Tangled.2010.2160p.UHD.BluRay.X265.10bit.HDR.TrueHD.7.1.Atmos-TERMiNAL 11.74GB-2.png 魔发奇缘/缠结 Tangled.2010.2160p.UHD.BluRay.X265.10bit.HDR.TrueHD.7.1.Atmos-TERMiNAL 11.74GB-3.png 魔发奇缘/缠结 Tangled.2010.2160p.UHD.BluRay.X265.10bit.HDR.TrueHD.7.1.Atmos-TERMiNAL 11.74GB-4.png






回复

使用道具 举报

发表于 2019-10-26 18:24:42 | 显示全部楼层
楼主发贴辛苦了,谢谢楼主分享!我觉得蓝光电影网是注册对了!
回复 支持 反对

使用道具 举报

发表于 2019-10-26 18:55:33 | 显示全部楼层

这东西我收了!谢谢楼主!蓝光电影网真好!
回复 支持 反对

使用道具 举报

发表于 2019-10-26 22:15:11 | 显示全部楼层

这个帖子不回对不起自己!我想我是一天也不能离开蓝光电影网
回复 支持 反对

使用道具 举报

发表于 2019-10-26 22:45:23 | 显示全部楼层
感觉非常不错的好片子!非常感谢热心分享!!!!
回复 支持 反对

使用道具 举报

发表于 2019-10-27 01:14:54 | 显示全部楼层

这个帖子不回对不起自己!我想我是一天也不能离开蓝光电影网
回复 支持 反对

使用道具 举报

发表于 2019-10-27 08:47:45 | 显示全部楼层
谢谢楼主分享,不错
回复 支持 反对

使用道具 举报

发表于 2019-10-27 09:26:28 | 显示全部楼层
楼主发贴辛苦了,谢谢楼主分享!我觉得蓝光电影网是注册对了!
回复 支持 反对

使用道具 举报

发表于 2019-10-28 07:08:37 | 显示全部楼层

这个帖子不回对不起自己!我想我是一天也不能离开蓝光电影网
回复 支持 反对

使用道具 举报

发表于 2019-10-28 15:57:11 | 显示全部楼层
这东西我收了!谢谢楼主!蓝光电影网真好!
回复 支持 反对

使用道具 举报

懒得打字嘛,点击右侧快捷回复 【右侧内容,后台自定义】
您需要登录后才可以回帖 登录 | 立即加入

本版积分规则

现在加入蓝光电影网,注册一个账号

QQ| 手机版|小黑屋| 蓝光电影网 |网站地图 

Copyright © 2015-2019 Comsenz Inc.  Template by 蓝光电影论坛 All Rights Reserved.

Powered by 蓝光电影网 X3.4

特别声明:本站所有资源均由网上收集而来,版权归原影音公司所有,如果侵犯了你的权益,请通知我们,我们会及时删除侵权内容.

快速回复 返回顶部 返回列表