找回密码

蓝光电影网

查看: 169|回复: 5

[REMUX.HEVC] 魔发奇缘/缠结 Tangled.2010.2160p.BluRay.REMUX.HEVC.TrueHD.7.1.Atmos-FGT 46.34GB

[复制链接]

 成长值: 23155

发表于 2019-10-26 17:20:52 | 显示全部楼层 |阅读模式
魔发奇缘/缠结 Tangled.2010.2160p.BluRay.REMUX.HEVC.TrueHD.7.1.Atmos-FGT 46.34GB-1.png

译  名 魔发奇缘 / 缠结 / 莴苣公主 / 长发公主 / 长发姑娘
片  名 Tangled
年  代 2010
产  地 美国
类  别 喜剧 / 动画 / 冒险
语  言 英语
上映日期 2010-11-24(美国) / 2011-02-03(中国台湾)
IMDb评分  7.7/10 from 374579 users
IMDb链接  https://www.imdb.com/title/tt0398286
豆瓣评分 8.2/10 from 167650 users
豆瓣链接 https://movie.douban.com/subject/1863766/
片  长 100分钟
导  演 内森·格雷诺 Nathan Greno / 拜伦·霍华德 Byron Howard
编  剧 雅各布·格林 Jacob Grimm / 威廉·格林 Wilhelm Grimm / 丹·福格尔曼 Dan Fogelman
主  演 曼迪·摩尔 Mandy Moore
       扎克瑞·莱维 Zachary Levi
       唐纳·墨菲 Donna Murphy
       朗·普尔曼 Ron Perlman
       迈克·康纳·盖尼 M.C. Gainey
       杰弗里·塔伯 Jeffrey Tambor
       布拉德·加内特 Brad Garrett
       保罗·F·汤普金斯 Paul F. Tompkins
       理查德·基尔 Richard Kiel
       德莱尼·罗斯·斯坦 Delaney Rose Stein
       内森·格雷诺 Nathan Greno
       拜伦·霍华德 Byron Howard
       蒂姆·梅尔滕斯 Tim Mertens


标  签 动画 | 迪斯尼 | 童话 | 美国 | 爱情 | 迪士尼 | 喜剧 | 2010

简  介  

  女巫Gothel(唐纳·墨菲 Donna Murphy 配音)靠着一朵神奇的金色花朵保持青春。王后重病,国王派人找到了这朵金花给王后治病,王后病愈,生下了一个一头金发的小女孩Rapunzel(曼迪·摩尔 Mandy Moore 配音)。女巫失去金花,却发现小公主的金发有 着同样的魔力,因此她偷走Rapunzel,把她关到森林中的一座没有楼梯高塔之上。
  十八年后,Rapunzel在女巫的抚养下长成一个拥有长长金发的美人,她越发渴望外面的世界,女巫为了自己青春永驻,想方设法把Rapunzel留在身边。一天,窃贼Flynn(扎克瑞·莱维 Zachary Levi 配音)盗取公主王冠后逃入森林,在好奇心趋势下登上了这座神秘的高塔,误打误撞见到了塔中的长发公主。在Flynn的陪伴下,Rapunzel走下高塔,开始了人生和爱情的大冒险。
  本片为迪斯尼公司第50部动画长片,改编自经典格林童话《长发公主》,由迪士尼元老级画师格兰·基恩首次担任动画片导演。

获奖情况  

  第83届奥斯卡金像奖(2011)
  最佳原创歌曲(提名) 格伦·斯莱特 / 艾伦·曼肯

  第68届金球奖(2011)
  电影类 最佳动画长片(提名)
  电影类 最佳原创歌曲(提名) 格伦·斯莱特 / 艾伦·曼肯

  第38届动画安妮奖(2011)
  最佳动画长片(提名)
  最佳编剧(提名) 丹·福格尔曼

  第9届华盛顿影评人协会奖(2010)
  最佳动画片(提名)

  第15届圣地亚哥影评人协会奖(2010)
  最佳动画片(提名)

  第23届芝加哥影评人协会奖(2010)
  最佳动画片(提名)

  第10届凤凰城影评人协会奖(2010)
  最佳原创歌曲(提名) 格伦·斯莱特 / 艾伦·曼肯
  最佳动画片(提名)

  第13届美国青少年选择奖(2011)
  最佳动画配音(提名) 扎克瑞·莱维
  1. Video
  2. ID                                       : 1
  3. Format                                   : HEVC
  4. Format/Info                              : High Efficiency Video Coding
  5. Format profile                           : Main High@L4@High
  6. HDR format                               : SMPTE ST 2086, HDR10 compatible
  7. Codec ID                                 : V_MPEGH/ISO/HEVC
  8. Duration                                 : 1 h 40 min
  9. Bit rate                                 : 52.5 Mb/s
  10. Width                                    : 3 840 pixels
  11. Height                                   : 2 160 pixels
  12. Display aspect ratio                     : 16:9
  13. Frame rate mode                          : Constant
  14. Frame rate                               : 23.976 (24000/1001) FPS
  15. Color space                              : YUV
  16. Chroma subsampling                       : 4:2:0 (Type 2)
  17. Bit depth                                : 10 bits
  18. Bits/(Pixel*Frame)                       : 0.264
  19. Stream size                              : 36.8 GiB (79%)
  20. Title                                    : Tangled.2010.2160p.BluRay.REMUX.HEVC.TrueHD.7.1.Atmos-FGT
  21. Writing library                          : ATEME Titan File 3.9.0 (4.9.0.0)        
  22. Language                                 : English
  23. Default                                  : No
  24. Forced                                   : No
  25. Color range                              : Limited
  26. Color primaries                          : BT.2020
  27. Transfer characteristics                 : PQ
  28. Matrix coefficients                      : BT.2020 non-constant
  29. Mastering display color primaries        : Display P3
  30. Mastering display luminance              : min: 0.0001 cd/m2, max: 1000 cd/m2

  31. Audio #1
  32. ID                                       : 2
  33. Format                                   : MLP FBA 16-ch
  34. Format/Info                              : Meridian Lossless Packing FBA with 16-channel presentation
  35. Commercial name                          : Dolby TrueHD with Dolby Atmos
  36. Codec ID                                 : A_TRUEHD
  37. Duration                                 : 1 h 40 min
  38. Bit rate mode                            : Variable
  39. Bit rate                                 : 7 753 kb/s
  40. Maximum bit rate                         : 9 480 kb/s
  41. Channel(s)                               : 8 channels
  42. Channel layout                           : L R C LFE Ls Rs Lb Rb
  43. Sampling rate                            : 48.0 kHz
  44. Frame rate                               : 1 200.000 FPS (40 SPF)
  45. Compression mode                         : Lossless
  46. Stream size                              : 5.43 GiB (12%)
  47. Title                                    : Tangled.2010.2160p.BluRay.REMUX.HEVC.TrueHD.7.1.Atmos-FGT
  48. Language                                 : English
  49. Default                                  : Yes
  50. Forced                                   : No
  51. Number of dynamic objects                : 13
  52. Bed channel count                        : 1 channel
  53. Bed channel configuration                : LFE

  54. Audio #2
  55. ID                                       : 3
  56. Format                                   : AC-3
  57. Format/Info                              : Audio Coding 3
  58. Commercial name                          : Dolby Digital
  59. Codec ID                                 : A_AC3
  60. Duration                                 : 1 h 40 min
  61. Bit rate mode                            : Constant
  62. Bit rate                                 : 640 kb/s
  63. Channel(s)                               : 6 channels
  64. Channel layout                           : L R C LFE Ls Rs
  65. Sampling rate                            : 48.0 kHz
  66. Frame rate                               : 31.250 FPS (1536 SPF)
  67. Bit depth                                : 16 bits
  68. Compression mode                         : Lossy
  69. Stream size                              : 459 MiB (1%)
  70. Title                                    : Tangled.2010.2160p.BluRay.REMUX.HEVC.TrueHD.7.1.Atmos-FGT
  71. Language                                 : English
  72. Service kind                             : Complete Main
  73. Default                                  : No
  74. Forced                                   : No

  75. Audio #3
  76. ID                                       : 4
  77. Format                                   : AC-3
  78. Format/Info                              : Audio Coding 3
  79. Commercial name                          : Dolby Digital
  80. Codec ID                                 : A_AC3
  81. Duration                                 : 1 h 40 min
  82. Bit rate mode                            : Constant
  83. Bit rate                                 : 320 kb/s
  84. Channel(s)                               : 2 channels
  85. Channel layout                           : L R
  86. Sampling rate                            : 48.0 kHz
  87. Frame rate                               : 31.250 FPS (1536 SPF)
  88. Bit depth                                : 16 bits
  89. Compression mode                         : Lossy
  90. Stream size                              : 230 MiB (0%)
  91. Title                                    : Tangled.2010.2160p.BluRay.REMUX.HEVC.TrueHD.7.1.Atmos-FGT
  92. Language                                 : English
  93. Service kind                             : Complete Main
  94. Default                                  : No
  95. Forced                                   : No

  96. Audio #4
  97. ID                                       : 5
  98. Format                                   : E-AC-3
  99. Format/Info                              : Enhanced AC-3
  100. Commercial name                          : Dolby Digital Plus
  101. Format profile                           : Blu-ray Disc
  102. Codec ID                                 : A_EAC3
  103. Duration                                 : 1 h 40 min
  104. Bit rate mode                            : Constant
  105. Bit rate                                 : 1 024 kb/s
  106. Channel(s)                               : 8 channels
  107. Channel layout                           : L R C LFE Ls Rs Lb Rb
  108. Sampling rate                            : 48.0 kHz
  109. Frame rate                               : 31.250 FPS (1536 SPF)
  110. Compression mode                         : Lossy
  111. Stream size                              : 735 MiB (2%)
  112. Title                                    : Tangled.2010.2160p.BluRay.REMUX.HEVC.TrueHD.7.1.Atmos-FGT
  113. Language                                 : French
  114. Service kind                             : Complete Main
  115. Default                                  : No
  116. Forced                                   : No

  117. Audio #5
  118. ID                                       : 6
  119. Format                                   : AC-3
  120. Format/Info                              : Audio Coding 3
  121. Commercial name                          : Dolby Digital
  122. Codec ID                                 : A_AC3
  123. Duration                                 : 1 h 40 min
  124. Bit rate mode                            : Constant
  125. Bit rate                                 : 576 kb/s
  126. Channel(s)                               : 6 channels
  127. Channel layout                           : L R C LFE Ls Rs
  128. Sampling rate                            : 48.0 kHz
  129. Frame rate                               : 31.250 FPS (1536 SPF)
  130. Bit depth                                : 16 bits
  131. Compression mode                         : Lossy
  132. Stream size                              : 413 MiB (1%)
  133. Title                                    : Tangled.2010.2160p.BluRay.REMUX.HEVC.TrueHD.7.1.Atmos-FGT
  134. Language                                 : French
  135. Service kind                             : Complete Main
  136. Default                                  : No
  137. Forced                                   : No

  138. Audio #6
  139. ID                                       : 7
  140. Format                                   : E-AC-3
  141. Format/Info                              : Enhanced AC-3
  142. Commercial name                          : Dolby Digital Plus
  143. Format profile                           : Blu-ray Disc
  144. Codec ID                                 : A_EAC3
  145. Duration                                 : 1 h 40 min
  146. Bit rate mode                            : Constant
  147. Bit rate                                 : 1 024 kb/s
  148. Channel(s)                               : 8 channels
  149. Channel layout                           : L R C LFE Ls Rs Lb Rb
  150. Sampling rate                            : 48.0 kHz
  151. Frame rate                               : 31.250 FPS (1536 SPF)
  152. Compression mode                         : Lossy
  153. Stream size                              : 735 MiB (2%)
  154. Title                                    : Tangled.2010.2160p.BluRay.REMUX.HEVC.TrueHD.7.1.Atmos-FGT
  155. Language                                 : Spanish
  156. Service kind                             : Complete Main
  157. Default                                  : No
  158. Forced                                   : No

  159. Audio #7
  160. ID                                       : 8
  161. Format                                   : AC-3
  162. Format/Info                              : Audio Coding 3
  163. Commercial name                          : Dolby Digital
  164. Codec ID                                 : A_AC3
  165. Duration                                 : 1 h 40 min
  166. Bit rate mode                            : Constant
  167. Bit rate                                 : 576 kb/s
  168. Channel(s)                               : 6 channels
  169. Channel layout                           : L R C LFE Ls Rs
  170. Sampling rate                            : 48.0 kHz
  171. Frame rate                               : 31.250 FPS (1536 SPF)
  172. Bit depth                                : 16 bits
  173. Compression mode                         : Lossy
  174. Stream size                              : 413 MiB (1%)
  175. Title                                    : Tangled.2010.2160p.BluRay.REMUX.HEVC.TrueHD.7.1.Atmos-FGT
  176. Language                                 : Spanish
  177. Service kind                             : Complete Main
  178. Default                                  : No
  179. Forced                                   : No

  180. Audio #8
  181. ID                                       : 9
  182. Format                                   : E-AC-3
  183. Format/Info                              : Enhanced AC-3
  184. Commercial name                          : Dolby Digital Plus
  185. Format profile                           : Blu-ray Disc
  186. Codec ID                                 : A_EAC3
  187. Duration                                 : 1 h 40 min
  188. Bit rate mode                            : Constant
  189. Bit rate                                 : 1 024 kb/s
  190. Channel(s)                               : 8 channels
  191. Channel layout                           : L R C LFE Ls Rs Lb Rb
  192. Sampling rate                            : 48.0 kHz
  193. Frame rate                               : 31.250 FPS (1536 SPF)
  194. Compression mode                         : Lossy
  195. Stream size                              : 735 MiB (2%)
  196. Title                                    : Tangled.2010.2160p.BluRay.REMUX.HEVC.TrueHD.7.1.Atmos-FGT
  197. Language                                 : Japanese
  198. Service kind                             : Complete Main
  199. Default                                  : No
  200. Forced                                   : No

  201. Audio #9
  202. ID                                       : 10
  203. Format                                   : AC-3
  204. Format/Info                              : Audio Coding 3
  205. Commercial name                          : Dolby Digital
  206. Codec ID                                 : A_AC3
  207. Duration                                 : 1 h 40 min
  208. Bit rate mode                            : Constant
  209. Bit rate                                 : 576 kb/s
  210. Channel(s)                               : 6 channels
  211. Channel layout                           : L R C LFE Ls Rs
  212. Sampling rate                            : 48.0 kHz
  213. Frame rate                               : 31.250 FPS (1536 SPF)
  214. Bit depth                                : 16 bits
  215. Compression mode                         : Lossy
  216. Stream size                              : 413 MiB (1%)
  217. Title                                    : Tangled.2010.2160p.BluRay.REMUX.HEVC.TrueHD.7.1.Atmos-FGT
  218. Language                                 : Japanese
  219. Service kind                             : Complete Main
  220. Default                                  : No
  221. Forced                                   : No

  222. Text #1
  223. ID                                       : 11
  224. Format                                   : UTF-8
  225. Codec ID                                 : S_TEXT/UTF8
  226. Codec ID/Info                            : UTF-8 Plain Text
  227. Duration                                 : 1 h 39 min
  228. Bit rate                                 : 42 b/s
  229. Count of elements                        : 918
  230. Stream size                              : 30.8 KiB (0%)
  231. Title                                    : English-SRT
  232. Language                                 : English
  233. Default                                  : Yes
  234. Forced                                   : No

  235. Text #2
  236. ID                                       : 12
  237. Format                                   : PGS
  238. Muxing mode                              : zlib
  239. Codec ID                                 : S_HDMV/PGS
  240. Codec ID/Info                            : Picture based subtitle format used on BDs/HD-DVDs
  241. Duration                                 : 1 h 39 min
  242. Bit rate                                 : 34.2 kb/s
  243. Count of elements                        : 2538
  244. Stream size                              : 24.3 MiB (0%)
  245. Title                                    : English-PGS
  246. Language                                 : English
  247. Default                                  : No
  248. Forced                                   : No

  249. Text #3
  250. ID                                       : 13
  251. Format                                   : PGS
  252. Muxing mode                              : zlib
  253. Codec ID                                 : S_HDMV/PGS
  254. Codec ID/Info                            : Picture based subtitle format used on BDs/HD-DVDs
  255. Duration                                 : 1 h 39 min
  256. Bit rate                                 : 28.2 kb/s
  257. Count of elements                        : 1850
  258. Stream size                              : 20.0 MiB (0%)
  259. Title                                    : French-PGS
  260. Language                                 : French
  261. Default                                  : No
  262. Forced                                   : No

  263. Text #4
  264. ID                                       : 14
  265. Format                                   : PGS
  266. Muxing mode                              : zlib
  267. Codec ID                                 : S_HDMV/PGS
  268. Codec ID/Info                            : Picture based subtitle format used on BDs/HD-DVDs
  269. Duration                                 : 1 h 39 min
  270. Bit rate                                 : 25.1 kb/s
  271. Count of elements                        : 1814
  272. Stream size                              : 17.8 MiB (0%)
  273. Title                                    : Spanish-PGS
  274. Language                                 : Spanish
  275. Default                                  : No
  276. Forced                                   : No

  277. Text #5
  278. ID                                       : 15
  279. Format                                   : PGS
  280. Muxing mode                              : zlib
  281. Codec ID                                 : S_HDMV/PGS
  282. Codec ID/Info                            : Picture based subtitle format used on BDs/HD-DVDs
  283. Duration                                 : 1 h 30 min
  284. Bit rate                                 : 24.4 kb/s
  285. Count of elements                        : 2014
  286. Stream size                              : 15.7 MiB (0%)
  287. Title                                    : Japanese-PGS
  288. Language                                 : Japanese
  289. Default                                  : No
  290. Forced                                   : No

  291. Menu
  292. 00:00:00.000                             : en:Chapter 01
  293. 00:08:20.958                             : en:Chapter 02
  294. 00:15:43.275                             : en:Chapter 03
  295. 00:24:41.021                             : en:Chapter 04
  296. 00:34:41.788                             : en:Chapter 05
  297. 00:42:30.881                             : en:Chapter 06
  298. 00:50:25.939                             : en:Chapter 07
  299. 00:59:21.641                             : en:Chapter 08
  300. 01:10:35.522                             : en:Chapter 09
  301. 01:19:23.216                             : en:Chapter 10
  302. 01:25:22.033                             : en:Chapter 11
  303. 01:31:20.808                             : en:Chapter 12
复制代码

魔发奇缘/缠结 Tangled.2010.2160p.BluRay.REMUX.HEVC.TrueHD.7.1.Atmos-FGT 46.34GB-2.png 魔发奇缘/缠结 Tangled.2010.2160p.BluRay.REMUX.HEVC.TrueHD.7.1.Atmos-FGT 46.34GB-3.png 魔发奇缘/缠结 Tangled.2010.2160p.BluRay.REMUX.HEVC.TrueHD.7.1.Atmos-FGT 46.34GB-4.png







回复

使用道具 举报

发表于 2019-10-27 09:55:20 | 显示全部楼层

这个帖子不回对不起自己!我想我是一天也不能离开蓝光电影网
回复 支持 反对

使用道具 举报

发表于 2019-10-27 23:23:49 | 显示全部楼层

楼主太厉害了!楼主,电影应该很好看我觉得蓝光电影网真是个好地方!
回复 支持 反对

使用道具 举报

 成长值: 970

发表于 2019-10-28 11:45:52 | 显示全部楼层
谢谢楼主无私分享。
回复 支持 反对

使用道具 举报

已抛锚 成长值: 5530

发表于 5 天前 | 显示全部楼层
██████在-线-看-片bxxp7.c o m 】██████

██████在-线-看-片
bxxp7.c o m 】██████

██████在-线-看-片
bxxp7.c o m 】██████

██████在-线-看-片
bxxp7.c o m 】██████

██████在-线-看-片
bxxp7.c o m 】██████

██████在-线-看-片
bxxp7.c o m 】██████

██████在-线-看-片
bxxp7.c o m 】██████
回复 支持 反对

使用道具 举报

已抛锚 成长值: 5530

发表于 昨天 13:14 | 显示全部楼层
██████在-线-看-片bxxp7.c o m 】██████

██████在-线-看-片
bxxp7.c o m 】██████

██████在-线-看-片
bxxp7.c o m 】██████

██████在-线-看-片
bxxp7.c o m 】██████

██████在-线-看-片
bxxp7.c o m 】██████

██████在-线-看-片
bxxp7.c o m 】██████

██████在-线-看-片
bxxp7.c o m 】██████
回复 支持 反对

使用道具 举报

懒得打字嘛,点击右侧快捷回复 【右侧内容,后台自定义】
您需要登录后才可以回帖 登录 | 立即加入

本版积分规则

现在加入蓝光电影网,注册一个账号

QQ| 手机版|小黑屋| 蓝光电影网 |网站地图

Copyright © 2015-2019 Comsenz Inc.  Template by 蓝光电影论坛 All Rights Reserved.

Powered by 蓝光电影网 X3.4

特别声明:本站所有资源均由网上收集而来,版权归原影音公司所有,如果侵犯了你的权益,请通知我们,我们会及时删除侵权内容.

快速回复 返回顶部 返回列表