找回密码

查看: 1532|回复: 32

[剧情] 战栗空间.Panic.Room.2002.1080p.BluRay.AVC.AC3.DD.5.1.x264-PANAM 6.18GB

[复制链接]
蓝光币
1858
发表于 2024-1-5 16:25:12 | 显示全部楼层 |阅读模式


◎译  名 战栗空间 / 房不胜防 / 战栗空间
◎片  名 Panic Room
◎年  代 2002
◎产  地 美国
◎类  别 剧情 / 惊悚 / 犯罪
◎语  言 英语
◎上映日期 2002-03-29(美国)
◎IMDb评星  ★★★★★★★☆☆☆
◎IMDb评分  6.8/10 from 293,104 users
◎IMDb链接  https://www.imdb.com/title/tt0258000/
◎豆瓣评星 ★★★✦☆
◎豆瓣评分 7.2/10 from 56,114 users
◎豆瓣链接 https://movie.douban.com/subject/1306911/
◎片  长 112 分钟 / 113 分钟(西班牙)
◎导  演 大卫·芬奇 / David Fincher
◎演  员 朱迪·福斯特 / Jodie Foster
      克里斯汀·斯图尔特 / Kristen Stewart
      福里斯特·惠特克 / Forest Whitaker
      德怀特·尤科姆 / Dwight Yoakam
      杰瑞德·莱托 / Jared Leto
      帕特里克·波查 / Patrick Bauchau
      保罗·舒尔茨 / Paul Schulze
      妮可·基德曼 / Nicole Kidman | 配 Stephen's Girlfriend on the Phone
      梅尔·罗德里格斯 / Mel Rodriguez | 饰 Officer Morales
      安德鲁·凯文·沃克 / Andrew Kevin Walker
      伊恩·布查南 / Ian Buchanan
      安·麦格纽森 / Ann Magnuson
◎编  剧 大卫·凯普 / David Koepp
◎制  片  人 大卫·凯普 / David Koepp
      加文·勃劳恩 / Gavin Polone
      切安·查芬 / Ceán Chaffin
      John S. Dorsey John S. Dorsey
◎音  乐 霍华德·肖 / Howard Shore
◎摄  影 康拉德·W·霍尔 / Conrad W. Hall
      达吕斯·康第 / Darius Khondji
◎剪  辑 安格斯·瓦尔 / Angus Wall
      James Haygood James Haygood
◎美  术 加雷特·刘易斯 / Garrett Lewis
      Keith Neely Keith Neely
      詹姆斯·托奇 / James E. Tocci
      阿瑟·马克斯 / Arthur Max
◎服  装 迈克尔·卡普兰 / Michael Kaplan
◎化  妆 汤姆·伍德鲁夫 / Tom Woodruff Jr.
      Randy Westgate Randy Westgate
      Julie Pearce Julie Pearce
      Frances Mathias Frances Mathias
      Edward Morrison Edward Morrison
      罗伯特·麦卡恩 / Robert McCann
      亚历克·吉祥斯 / Alec Gillis
◎副  导  演 Bob Wagner Bob Wagner
      Maria Mantia Maria Mantia
◎视觉殊效 Leif Einarsson Leif Einarsson
      安迪·罗宾逊 / Andy Robinson
      洛恩·莫尔纳 / Lon Molnar
      Chad Malbon Chad Malbon
      约翰尼·阿尔维斯 / Johnny Alves
      折笠明 / Akira Orikasa
      洛朗·拉维尼 / Laurent Lavigne
       Nicolas Bonnell
      Andrea D'Amico Andrea D'Amico
      谷德伦·海因茨 / Gudrun Heinze
      大卫·埃布纳 / David Ebner
      凯文·托德·豪格 / Kevin Tod Haug
      杰瑞米·迪尼恩 / Jeremy Dineen
      Hans Pfleiderer Hans Pfleiderer
      J. André Chaintreuil J. André Chaintreuil
◎简  介 
  梅格(朱迪·福斯特 Jodie Foster 饰)刚刚竣事了一场失利的婚姻,为了分开轻易勾起回忆的悲伤地,梅格带着女儿莎拉(克里斯汀·斯图尔特 Kristen Stewart 饰)搬进了一幢位于纽约的大屋子内。虽然这座修建已经有些年头了,可是梅格和莎拉对他们的新家还是感应非常的满足。
  在屋子里,梅格发现了一间告急出亡所,里面除了有充沛的食品和水外,还有一套完善的闭路监视系统。一天,三名强盗潜入了梅格家中,来寻觅传闻中隐藏在这里的玉帛,梅格带着莎拉躲进了出亡所里,留给她的时候并不多,假如不可以克服穷凶极恶的劫匪,那末她和女儿将双双付诞生命的价格。
◎台词金句
  Junior: How do we get in there?
  Burnham: You can't.
  朱尼尔:我们怎样能进到那边?
  伯翰:你不能。
  ________________________________________
  Meg:  Get out of my house!
  Sarah: Say Fuck!
  Meg:  FUCK!
  Sarah: Mum! "Get the fuck out of my house"!
  Meg:  Get the FUCK out of my house!
  梅格【高声嚷】:滚出我的屋子!
  莎拉:说“他妈的”!
  梅格:【高声嚷】:他妈的!
  莎拉:妈!“他妈的滚出我的屋子!”
  梅格:【高声嚷】:他妈的滚出我的屋子!
  ________________________________________
  Meg: This whole thing makes me nervous.
  Lydia Lynch: Why?
  Meg: Ever read any Poe?
  Lydia Lynch: No, but I loved her last album!
  【在领会了战栗屋今后】
  梅格:这全部工作让我感觉严重。
  莉迪亚.林奇:为什么?
  梅格:读过坡的什么作品?(坡,爱德加·阿伦,美国作家,以可骇诗歌著名)
  莉迪亚.林奇:不,可是我喜好她的最初签名!
  ________________________________________
  Meg: Is that Morse Code?
  Sarah: No, SOS.
  Meg: Where did you learn that?
  Sarah: Titanic!
  梅格:这是莫尔斯电码?
  莎拉:不,是SOS.
  梅格:你从哪儿学的这个?
  莎拉:泰坦尼克!
  ________________________________________
  Burnham: This is what I do; if some idiot with a sledgehammer could break in do you really think I'd still have a job?
  伯翰:这就是我做的工作,假如某个痴人拿个大锤就能破坏,你真的感觉我还能保住这个工作?
  ________________________________________
  Sarah: Are you okay?
  Meg: Yeah.
  Sarah: Small space?
  Meg: I'm okay.
  Sarah: You can't wig out.
  Meg: I know.
  Sarah: I mean it.
  Meg: I won't.
  Sarah: You know, people never get buried alive anymore. I guess it used to happen all the time.
  Meg: Really?
  Sarah: Yeah, I read that.
  Meg: And when did this happen all the time?
  Sarah: 20, 30 years ago.
  Meg: What are they doing now?
  Sarah: I don't know.
  莎拉:你预备好了?
  梅格:是。
  莎拉:小空间?
  梅格:我预备好了。
  莎拉:你不能冲动。
  梅格:我晓得。
  莎拉:我说真的。
  梅格:我不会的。
  莎拉:你晓得,人不再会被生坑了。我想畴前经常随时城市发生。
  梅格:真的?
  莎拉:是,我读到过。
  梅格:那什么时辰经常会发生?
  莎拉:二三十年钱。
  梅格:那他们现在怎样做?
  莎拉:我不晓得。
◎幕后揭秘
  【关于电影】假如片名直译的话,应当叫做“战栗之屋”,实在它该叫做“不战栗之屋”才对,由于它原本是一个高科技的防盗密屋,假如经济条件答应而又必须如此的话,能够每个美国家庭城市给自己装备这么一间宝贝屋子。在里面呆着,理所该当是平安的,最少比暴徒破门而入的客厅平安很多。可是,假如恰好有人很想获得你在这密屋里的某种宝贝,而你又把自己关在里面的话,你该怎样办?这个题目就似乎把一切人放置在一个危险情境下要你自己去想法子逃诞生天。假如观众不愿意自己想法子,那没关系,最少,会有很多人有爱都雅他人怎样想法子,大概想了什么法子来逃生,从而学它两招吧。这就是本片的心理设定。如果你不想随着配角去体验危险让自己心脏病发,那还是不看的好。可以说,战栗空间做到了那些最好的悬疑片凡是所做的:它让我们在108分钟心里悬悬。芬奇用那种难以忍受的张力很快把我们带入情境傍边。其中有没有逻辑缝隙?毫无疑问是有的,可是很不明显,直到影院的灯亮光起把我们带回现实之前,我们不会有精神去想到那些。【关于镜头】一个身手纯熟的导演也许会感觉,整部电影的全数镜头都在一幢屋子里拍摄的话,难免不遭到限制。可是导演大卫·芬奇恰恰让本片的全数场景都在纽约的褐石豪宅里展开,同时,本片大大都场景也以暗夜为主,他用使人头昏眼花的视觉表示才能应战了自己和观众。他的镜头巡游过楼梯,滑过墙壁,在惊人的电脑特技的帮助下,甚至随着暴徒的视野,从屋子的内部检视着那些轻易攻破的亏弱环节。如此出色的拍摄来自于芬奇的摄影师团队:康拉德·W·霍尔(Conrad W Hall)和大流士·孔德基(Darius Khondji)。本片镜头的拍摄让人不由想起大流士在法国电影《黑店狂想曲》(Delicatessen 1991)和 《童梦失魂夜》(la cité des enfants perdus /City of Lost Children 1995)里的出色工作。那两部电影的摄影气概与大卫·芬奇的一向黑色诡异有殊途同归之妙。镜头又趁热打铁,又晃动不稳,经常忽然高低移动,游走遍全部修建物每个角落,传神模拟了人眼的视觉体验,完全令观众设身处地。【关于创作灵感】电影的配角是母女二人,母亲有幽闭可骇症,女儿是糖尿病患者,这又给观众制造了弱者能否能逃生的心理悬念。可以想见,她们俩是最不合适被关进密屋的人选,由于母亲明显很轻易在密屋中发狂,女儿则会由于空气和药品的缺少而犯病。配角是暴徒三名,不但为了钱财铤而走险,而且底子就是密屋的设想者,机关重重对他们来说不在话下。电影一路头就清楚交接了双方的条件,让大师幸亏两个小时的黑黑暗看看好人若何跟时候赛跑,若何和好人一路来停止这个惊心动魄的猫鼠游戏。本片的手法使人不由想到,这是部向希区柯克的巨大悬疑惊悚致敬之作。大卫·芬奇本人说,他拍摄本片,很是遭到《后窗》的启发。这个剧本确切是非同平常:配角和对手都非常聪明,并不是靠谁的愚蠢,而是靠哪一方思考得更深入来取胜。而且,在结尾处,有个标致的逆转,而且,这个非传统的结尾,让人感受起来是“对”的。
  大卫·芬奇这回把精神全放在镜头的应用上,有点走火入魔。为了说明整栋室第的结构,镜头屡次在楼层之间高低移动,如同电子游戏中的虚拟空间。喜好芬奇的影迷一定会从中挖掘出一些值得品味的内在,如人类的避风港同时也是人类的圈套。但芬奇的人性黑暗理论及虚无主义并没有渗透到这部影片的金城汤池,而能在影片里里外外“飞檐走壁”的,只要那些三维跟踪镜头。
  1. General
  2. Unique ID                                : 205979107899544795500600116840407269150 (0x9AF622183A5FA5448F0A4E431A647F1E)
  3. Complete name                            : D:\Panic.Room.2002.1080p.BluRay.AVC.AC3.DD.5.1.x264-PANAM.mkv
  4. Format                                   : Matroska
  5. Format version                           : Version 4
  6. File size                                : 6.18 GiB
  7. Duration                                 : 1 h 51 min
  8. Overall bit rate mode                    : Variable
  9. Overall bit rate                         : 7 898 kb/s
  10. Frame rate                               : 23.976 FPS
  11. Encoded date                             : 2023-12-27 03:39:42 UTC
  12. Writing application                      : TMPGEnc
  13. Writing library                          : TMPGEnc
  14. Video
  15. ID                                       : 1
  16. Format                                   : AVC
  17. Format/Info                              : Advanced Video Codec
  18. Format profile                           : High@L4
  19. Format settings                          : CABAC / 5 Ref Frames
  20. Format settings, CABAC                   : Yes
  21. Format settings, Reference frames        : 5 frames
  22. Codec ID                                 : V_MPEG4/ISO/AVC
  23. Duration                                 : 1 h 51 min
  24. Bit rate mode                            : Variable
  25. Bit rate                                 : 7 400 kb/s
  26. Maximum bit rate                         : 29.6 Mb/s
  27. Width                                    : 1 920 pixels
  28. Height                                   : 808 pixels
  29. Display aspect ratio                     : 2.39:1
  30. Frame rate mode                          : Constant
  31. Frame rate                               : 23.976 (24000/1001) FPS
  32. Standard                                 : Component
  33. Color space                              : YUV
  34. Chroma subsampling                       : 4:2:0
  35. Bit depth                                : 8 bits
  36. Scan type                                : Progressive
  37. Bits/(Pixel*Frame)                       : 0.199
  38. Stream size                              : 5.55 GiB (90%)
  39. Writing library                          : x264 core 155
  40. Encoding settings                        : cabac=1 / ref=5 / deblock=1:0:0 / analyse=0x3:0x113 / me=umh / subme=8 / psy=1 / psy_rd=1.00:0.00 / mixed_ref=1 / me_range=16 / chroma_me=1 / trellis=1 / 8x8dct=1 / cqm=1 / deadzone=21,11 / fast_pskip=1 / chroma_qp_offset=-2 / threads=25 / lookahead_threads=4 / sliced_threads=0 / slices=1 / nr=0 / decimate=1 / interlaced=0 / minigop=0 / stitchable=1 / constrained_intra=0 / bframes=3 / b_pyramid=0 / b_adapt=2 / b_bias=0 / direct=3 / weightb=1 / open_gop=1 / weightp=2 / keyint=250 / keyint_min=23 / scenecut=40 / intra_refresh=0 / rc_lookahead=50 / rc=abr / mbtree=1 / bitrate=7400 / ratetol=1.0 / qcomp=0.60 / qpmin=3 / qpmax=69 / qpstep=4 / vbv_maxrate=29600 / vbv_bufsize=29600 / nal_hrd=vbr / filler=0 / ip_ratio=1.40 / aq=1:1.00
  41. Default                                  : Yes
  42. Forced                                   : No
  43. Color range                              : Limited
  44. Color primaries                          : BT.709
  45. Transfer characteristics                 : BT.709
  46. Matrix coefficients                      : BT.709
  47. Audio
  48. ID                                       : 2
  49. Format                                   : AC-3
  50. Format/Info                              : Audio Coding 3
  51. Commercial name                          : Dolby Digital
  52. Codec ID                                 : A_AC3
  53. Duration                                 : 1 h 51 min
  54. Bit rate mode                            : Constant
  55. Bit rate                                 : 640 kb/s
  56. Channel(s)                               : 6 channels
  57. Channel layout                           : L R C LFE Ls Rs
  58. Sampling rate                            : 48.0 kHz
  59. Frame rate                               : 31.250 FPS (1536 SPF)
  60. Compression mode                         : Lossy
  61. Stream size                              : 512 MiB (8%)
  62. Service kind                             : Complete Main
  63. Default                                  : Yes
  64. Forced                                   : No
复制代码









回复

使用道具 举报

蓝光币
485
发表于 2024-1-5 17:31:34 | 显示全部楼层

这东西我收了!谢谢楼主!蓝光电影网真好!
回复

使用道具 举报

蓝光币
1002
发表于 2024-1-5 20:30:45 | 显示全部楼层

我看不错噢 谢谢楼主!蓝光电影网越来越好!
回复

使用道具 举报

蓝光币
266
发表于 2024-1-6 09:26:38 | 显示全部楼层
感谢分享
回复

使用道具 举报

蓝光币
437
发表于 2024-1-6 09:35:57 | 显示全部楼层
谢谢分享
回复

使用道具 举报

蓝光币
83
发表于 2024-1-6 09:43:59 | 显示全部楼层
谢谢分享
回复

使用道具 举报

蓝光币
1769
发表于 2024-1-6 11:02:33 | 显示全部楼层
楼主发贴辛苦了,谢谢楼主分享!我觉得蓝光电影网是注册对了!
回复

使用道具 举报

蓝光币
1474
发表于 2024-1-6 13:26:54 | 显示全部楼层
楼主发贴辛苦了,谢谢楼主分享!我觉得蓝光电影网是注册对了!
回复

使用道具 举报

蓝光币
214
发表于 2024-1-6 18:09:58 | 显示全部楼层
楼主发贴辛苦了,谢谢楼主分享!我觉得蓝光电影网是注册对了!
回复

使用道具 举报

蓝光币
1002
发表于 2024-1-6 20:58:25 | 显示全部楼层

既然你诚信诚意的推荐了,那我就勉为其难的看看吧!蓝光电影网不走平凡路。
回复

使用道具 举报

懒得打字嘛,点击右侧快捷回复 【右侧内容,后台自定义】
您需要登录后才可以回帖 登录 | 立即加入

本版积分规则

Copyright © 2024 Comsenz Inc. Powered by 蓝光电影网

本站内容由用户自主分享和转载自互联网,转载目的在于传递更多信息,并不代表本网赞同其观点和对其真实性负责。

如有侵权、违反国家法律政策行为,请联系我们,我们会第一时间及时清除和处理!

举报反馈邮箱:4k1080.com@gmail.com

快速回复 返回顶部 返回列表