找回密码

查看: 1426|回复: 36

[剧情] 思维空间.Anna.2013.1080p.BluRay.AVC.AC3.DD5.1.x264-PANAM 5.45GB

[复制链接]
蓝光币
1840
发表于 2023-12-29 10:23:26 | 显示全部楼层 |阅读模式


◎译  名 思维空间 / 记忆侦察(台) / 安娜 / 深深脑海里 / Mindscape
◎片  名 Anna
◎年  代 2013
◎产  地 西班牙 / 美国 / 英国 / 法国
◎类  别 剧情 / 悬疑 / 惊悚
◎语  言 英语
◎上映日期 2013-10-13(锡切斯电影节) / 2014-01-24(西班牙)
◎IMDb评星  ★★★★★★✦☆☆☆
◎IMDb评分  6.4/10 from 24,878 users
◎IMDb链接  https://www.imdb.com/title/tt1715336/
◎豆瓣评星 ★★★✦☆
◎豆瓣评分 6.8/10 from 7,218 users
◎豆瓣链接 https://movie.douban.com/subject/10432181/
◎片  长 99分钟
◎导  演 豪尔赫·多拉多 / Jorge Dorado
◎演  员 马克·斯特朗 / Mark Strong
      泰莎·法米加 / Taissa Farmiga
      因迪拉·瓦玛 / Indira Varma
      布莱恩·考克斯 / Brian Cox
      诺亚·泰勒 / Noah Taylor
      杰西卡·巴登 / Jessica Barden
      莎卡亚·瑞丝 / Saskia Reeves
      克莱尔·加尔布雷斯 / Clare Calbraith
      鲁德·哈利特 / Rod Hallett
      阿尔维托·阿曼 / Alberto Ammann
      胡里奥·佩里兰 / Julio Perillán
      大卫·切弗斯 / David Chevers
      布鲁诺·塞维利亚 / Bruno Sevilla | 饰 Detective 2
      安东尼娅·克拉克 / Antonia Clarke | 饰 Susan
      理查德·迪兰 / Richard Dillane
◎编  剧 盖·福尔摩斯 / Guy Holmes
      玛莎·福尔摩斯 / Martha Holmes
◎制  片  人 佐米·希尔拉 / Jaume Collet-Serra
◎音  乐 卢卡斯·比达尔 / Lucas Vidal
◎摄  影 奥斯卡·福拉 / Óscar Faura
◎其  它 弗瑞达·帕尔森 / Frida Palsson
◎简  介 
  约翰有能看到他人记忆的特别才能,他的新案子调核工具是个聪慧却有精神题目标十六岁少女安娜。约翰必须解开谜团:安娜究竟是反社会还是奥秘精神创伤的受害人……
◎获奖情况 
  第28届西班牙戈雅奖 (2014)
  最好新人导演(提名) 豪尔赫·多拉多
  1. General
  2. Unique ID                                : 35821515424846412243996099173378268815 (0x1AF2F91159D62F46A61BE490E9B19E8F)
  3. Complete name                            : D:\Anna.2013.1080p.BluRay.AVC.AC3.DD5.1.x264-PANAM.mkv
  4. Format                                   : Matroska
  5. Format version                           : Version 4
  6. File size                                : 5.45 GiB
  7. Duration                                 : 1 h 38 min
  8. Overall bit rate mode                    : Variable
  9. Overall bit rate                         : 7 888 kb/s
  10. Frame rate                               : 23.976 FPS
  11. Encoded date                             : 2023-12-28 15:25:46 UTC
  12. Writing application                      : TMPGEnc
  13. Writing library                          : TMPGEnc
  14. Video
  15. ID                                       : 1
  16. Format                                   : AVC
  17. Format/Info                              : Advanced Video Codec
  18. Format profile                           : High@L4
  19. Format settings                          : CABAC / 5 Ref Frames
  20. Format settings, CABAC                   : Yes
  21. Format settings, Reference frames        : 5 frames
  22. Codec ID                                 : V_MPEG4/ISO/AVC
  23. Duration                                 : 1 h 38 min
  24. Bit rate mode                            : Variable
  25. Bit rate                                 : 7 400 kb/s
  26. Maximum bit rate                         : 29.6 Mb/s
  27. Width                                    : 1 920 pixels
  28. Height                                   : 808 pixels
  29. Display aspect ratio                     : 2.39:1
  30. Frame rate mode                          : Constant
  31. Frame rate                               : 23.976 (24000/1001) FPS
  32. Standard                                 : Component
  33. Color space                              : YUV
  34. Chroma subsampling                       : 4:2:0
  35. Bit depth                                : 8 bits
  36. Scan type                                : Progressive
  37. Bits/(Pixel*Frame)                       : 0.199
  38. Stream size                              : 4.90 GiB (90%)
  39. Writing library                          : x264 core 155
  40. Encoding settings                        : cabac=1 / ref=5 / deblock=1:0:0 / analyse=0x3:0x113 / me=umh / subme=8 / psy=1 / psy_rd=1.00:0.00 / mixed_ref=1 / me_range=16 / chroma_me=1 / trellis=1 / 8x8dct=1 / cqm=1 / deadzone=21,11 / fast_pskip=1 / chroma_qp_offset=-2 / threads=25 / lookahead_threads=4 / sliced_threads=0 / slices=1 / nr=0 / decimate=1 / interlaced=0 / minigop=0 / stitchable=1 / constrained_intra=0 / bframes=3 / b_pyramid=0 / b_adapt=2 / b_bias=0 / direct=3 / weightb=1 / open_gop=1 / weightp=2 / keyint=250 / keyint_min=23 / scenecut=40 / intra_refresh=0 / rc_lookahead=50 / rc=abr / mbtree=1 / bitrate=7400 / ratetol=1.0 / qcomp=0.60 / qpmin=3 / qpmax=69 / qpstep=4 / vbv_maxrate=29600 / vbv_bufsize=29600 / nal_hrd=vbr / filler=0 / ip_ratio=1.40 / aq=1:1.00
  41. Default                                  : Yes
  42. Forced                                   : No
  43. Color range                              : Limited
  44. Color primaries                          : BT.709
  45. Transfer characteristics                 : BT.709
  46. Matrix coefficients                      : BT.709
  47. Audio
  48. ID                                       : 2
  49. Format                                   : AC-3
  50. Format/Info                              : Audio Coding 3
  51. Commercial name                          : Dolby Digital
  52. Codec ID                                 : A_AC3
  53. Duration                                 : 1 h 38 min
  54. Bit rate mode                            : Constant
  55. Bit rate                                 : 640 kb/s
  56. Channel(s)                               : 6 channels
  57. Channel layout                           : L R C LFE Ls Rs
  58. Sampling rate                            : 48.0 kHz
  59. Frame rate                               : 31.250 FPS (1536 SPF)
  60. Compression mode                         : Lossy
  61. Stream size                              : 452 MiB (8%)
  62. Service kind                             : Complete Main
  63. Default                                  : Yes
  64. Forced                                   : No
复制代码










回复

使用道具 举报

蓝光币
101
发表于 2023-12-29 11:42:46 | 显示全部楼层
楼主发贴辛苦了,谢谢楼主分享!我觉得蓝光电影网是注册对了!
回复

使用道具 举报

蓝光币
1763
发表于 2023-12-29 12:11:19 | 显示全部楼层
楼主发贴辛苦了,谢谢楼主分享!我觉得蓝光电影网是注册对了!
回复

使用道具 举报

蓝光币
109
发表于 2023-12-29 12:44:10 | 显示全部楼层
楼主发贴辛苦了,谢谢楼主分享!我觉得蓝光电影网是注册对了!
回复

使用道具 举报

蓝光币
123
发表于 2023-12-29 15:55:23 | 显示全部楼层
楼主辛苦了,经典好电影,值得看
回复

使用道具 举报

蓝光币
754
发表于 2023-12-30 00:34:10 | 显示全部楼层
楼主发贴辛苦了,谢谢楼主分享!我觉得蓝光电影网是注册对了!
回复

使用道具 举报

蓝光币
1270
发表于 2023-12-30 11:48:09 | 显示全部楼层

既然你诚信诚意的推荐了,那我就勉为其难的看看吧!蓝光电影网不走平凡路。
回复

使用道具 举报

蓝光币
0
发表于 2023-12-30 13:41:58 来自手机 | 显示全部楼层
楼主发贴辛苦了,谢谢楼主分享!我觉得蓝光电影网是注册对了!
回复

使用道具 举报

蓝光币
465
发表于 2023-12-31 00:23:27 | 显示全部楼层
楼主发贴辛苦了,谢谢楼主分享!我觉得蓝光电影网是注册对了!
回复

使用道具 举报

蓝光币
214
发表于 2023-12-31 14:06:26 | 显示全部楼层
楼主发贴辛苦了,谢谢楼主分享!我觉得蓝光电影网是注册对了!
回复

使用道具 举报

懒得打字嘛,点击右侧快捷回复 【右侧内容,后台自定义】
您需要登录后才可以回帖 登录 | 立即加入

本版积分规则

Copyright © 2024 Comsenz Inc. Powered by 蓝光电影网

本站内容由用户自主分享和转载自互联网,转载目的在于传递更多信息,并不代表本网赞同其观点和对其真实性负责。

如有侵权、违反国家法律政策行为,请联系我们,我们会第一时间及时清除和处理!

举报反馈邮箱:4k1080.com@gmail.com

快速回复 返回顶部 返回列表