找回密码

蓝光电影网

查看: 78|回复: 2

[剧情] 趣味游戏美国版 Funny.Games.2007.1080p.BluRay.x264.DTS-FGT 10.10GB

[复制链接]

 成长值: 26755

发表于 2020-7-1 00:12:14 | 显示全部楼层 |阅读模式
趣味游戏美国版 Funny.Games.2007.1080p.BluRay.x264.DTS-FGT 10.10GB-1.png


译  名 趣味游戏美国版 / Funny Games U.S. / 大刽人心 / 大快人心 / 恐怖游戏 / 疯杀游戏 / 趣味游戏
片  名 Funny Games
年  代 2007
产  地 美国 / 法国 / 英国 / 奥地利 / 德国 / 意大利
类  别 剧情 / 惊悚 / 恐怖
语  言 英语
上映日期 2007-10-20
IMDb评分  6.6/10 from 88325 users
IMDb链接  https://www.imdb.com/title/tt0808279
豆瓣评分 6.6/10 from 17422 users
豆瓣链接 https://movie.douban.com/subject/1892527/
片  长 111 分钟
导  演 Michael Haneke
编  剧 Michael Haneke
主  演 Naomi Watts
       Tim Roth
       Michael Pitt
       Brady Corbet
       Devon Gearhart
       Boyd Gaines
       Siobhan Fallon


标  签 惊悚 | 美国 | 犯罪 | 恐怖 | 美国电影 | 2007 | NaomiWatts | MichaelHaneke

简  介  

  乔治(Tim Roth 蒂姆?罗素 饰)和安(Naomi Watts 娜奥米?沃茨 饰)带着儿子和爱犬来到城外岛某别墅度假,原本美好的假期却被两个不速之客破坏。两个打扮拘谨,文质彬彬的年轻人敲开乔治的房门,向他们借鸡蛋。安热情地接待他们,然而鸡蛋一次次被有意无意打破,他们的电话也被碰倒水中。安的忍耐到了极限,命令他们离开自己的房子。
  年轻人非但不听,反而变本加厉,开始对乔治一家展开毫不留情的折磨与屠杀……
  本片荣获2008年少年好莱坞奖一种视角最佳男主角奖(Brady Corbet)。
  1. Video
  2. ID                                       : 1
  3. Format                                   : AVC
  4. Format/Info                              : Advanced Video Codec
  5. Format profile                           : High@L4
  6. Format settings, CABAC                   : Yes
  7. Format settings, ReFrames                : 4 frames
  8. Codec ID                                 : V_MPEG4/ISO/AVC
  9. Duration                                 : 1h 51mn
  10. Bit rate                                 : 11.5 Mbps
  11. Width                                    : 1 920 pixels
  12. Height                                   : 1 040 pixels
  13. Display aspect ratio                     : 1.85:1
  14. Frame rate mode                          : Constant
  15. Frame rate                               : 24.000 fps
  16. Color space                              : YUV
  17. Chroma subsampling                       : 4:2:0
  18. Bit depth                                : 8 bits
  19. Scan type                                : Progressive
  20. Bits/(Pixel*Frame)                       : 0.240
  21. Stream size                              : 8.73 GiB (86%)
  22. Writing library                          : x264 core 65 r999M cc51047
  23. Encoding settings                        : cabac=1 / ref=4 / deblock=1:-3:-3 / analyse=0x3:0x113 / me=umh / subme=9 / psy_rd=1.0:1.0 / mixed_ref=1 / me_range=24 / chroma_me=1 / trellis=2 / 8x8dct=1 / cqm=2 / deadzone=21,11 / chroma_qp_offset=-4 / threads=6 / nr=0 / decimate=1 / mbaff=0 / bframes=3 / b_pyramid=0 / b_adapt=2 / b_bias=0 / direct=3 / wpredb=1 / keyint=250 / keyint_min=25 / scenecut=40(pre) / rc=2pass / bitrate=11496 / ratetol=1.0 / qcomp=0.60 / qpmin=10 / qpmax=51 / qpstep=4 / cplxblur=20.0 / qblur=0.5 / ip_ratio=1.40 / pb_ratio=1.30 / aq=1:0.60
  24. Language                                 : English
  25. Default                                  : Yes
  26. Forced                                   : No

  27. Audio
  28. ID                                       : 2
  29. Format                                   : DTS
  30. Format/Info                              : Digital Theater Systems
  31. Mode                                     : 16
  32. Format settings, Endianness              : Big
  33. Codec ID                                 : A_DTS
  34. Duration                                 : 1h 51mn
  35. Bit rate mode                            : Constant
  36. Bit rate                                 : 1 509 Kbps
  37. Channel(s)                               : 6 channels
  38. Channel positions                        : Front: L C R, Side: L R, LFE
  39. Sampling rate                            : 48.0 KHz
  40. Bit depth                                : 16 bits
  41. Compression mode                         : Lossy
  42. Stream size                              : 1.17 GiB (12%)
  43. Language                                 : English
  44. Default                                  : Yes
  45. Forced                                   : No

  46. Text
  47. ID                                       : 3
  48. Format                                   : UTF-8
  49. Codec ID                                 : S_TEXT/UTF8
  50. Codec ID/Info                            : UTF-8 Plain Text
  51. Language                                 : English
  52. Default                                  : No
  53. Forced                                   : No
复制代码









回复

使用道具 举报

 成长值: 3505

发表于 2020-7-1 10:33:38 | 显示全部楼层
谢谢楼主无私分享。
回复 支持 反对

使用道具 举报

发表于 2020-7-2 10:16:21 | 显示全部楼层
不错的电影,推荐大家一看
回复 支持 反对

使用道具 举报

懒得打字嘛,点击右侧快捷回复 【右侧内容,后台自定义】
您需要登录后才可以回帖 登录 | 立即加入

本版积分规则

上个主题 下个主题 快速回复 收藏帖子 返回列表 客服中心 搜索
现在加入蓝光电影网,注册一个账号

手机版|小黑屋| 蓝光电影网  |网站地图

Copyright © 2015-2019 Comsenz Inc.  Template by 蓝光电影论坛 All Rights Reserved.

Powered by 蓝光电影网 X3.4

特别声明:本站所有资源均由网上收集而来,版权归原影音公司所有,如果侵犯了你的权益,请通知我们,我们会及时删除侵权内容.

快速回复 返回顶部 返回列表