找回密码

查看: 220|回复: 1

[剧情] 孙子从美国来/当孙悟空遇上蜘蛛侠 [国语中字].A.Grandson.from.America.2012.WEB-DL.1080p.H.264.AAC-TAG 2.86GB

[复制链接]
蓝光币
1840
发表于 2024-3-26 20:44:23 | 显示全部楼层 |阅读模式
孙子从美国来/当孙悟空遇上蜘蛛侠 [国语中字].A.Grandson.from.America.2012.WEB-DL.1080p.H.264.AAC-TAG 2.86GB-1.jpg
◎译  名 A Grandson from America / 当孙悟空遇上蜘蛛侠
◎片  名 孙子从美国来
◎年  代 2012
◎产  地 中国大陆
◎类  别 剧情 / 家庭 / 儿童
◎语  言 陕西话 / 汉语普通话 / 英语
◎上映日期 2012-02-02(中国大陆)
◎IMDb评分  7.5/10 from 96 users
◎IMDb链接  https://www.imdb.com/title/tt2759302
◎豆瓣评分 8.4/10 from 52347 users
◎豆瓣链接 https://movie.douban.com/subject/10467774/
◎片  长 89分钟
◎导  演 曲江涛 Jiangtao Qu
◎编  剧 曲江涛 Jiangtao Qu
◎主  演 罗京民 Jingmin Luo
      丁佳明 Jiaming Ding
      刘天佐 Tianzuo Liu

◎简  介  

  老杨头(罗京民 饰)是陕西华县一位独居老艺人,家中收藏着表演皮电影的全套行当。一天,离家多年的儿子忽然领回了洋女友和洋孙子布鲁克斯(丁佳明 饰)。看法遭到冲击的老杨头还未回过神来,儿子和女友又因要远赴可可西里工作而慌忙将布鲁克斯拜托给了自己。措手不及的老杨头只得生涩的充任起洋孙子的看护人,爷孙俩经常因工具方文化差别和说话欠亨发生抵触。
  为了让布鲁克斯喝到鲜牛奶,老杨头找上了养奶牛的乡文化站王站长(刘天佐 饰)。正酝酿开班传承皮电影的王站长借机力邀老杨头复出。在王站长不懈的游说和布鲁克斯的影响下,老杨头的皮影班终究成功开授,他与布鲁克斯之间也由于皮电影这类怪异温馨的相同方式变得密切无间。

◎获奖情况  

  第29届中国电影金鸡奖(2013)
  最好原创剧本(提名) 曲江涛
  最好导演童贞作(提名) 曲江涛
  最好儿童片(提名)

  第20届北京大门生电影节(2013)
  最好低本钱单元 最好低本钱电影男演员奖 罗京民
  最好低本钱单元 最好低本钱电影奖(提名)
  最好低本钱单元 最好低本钱电影导演奖(提名) 曲江涛

  第13届百合奖(2013)
  优异影片二等奖
  优异编剧奖 曲江涛

  第3届豆瓣电影鑫像奖(2013)
  鑫豆单元 最好影片(华语)(提名)
  鑫豆单元 最轻易轻忽的好电影(提名)
  1. General
  2. Complete name                  : A Grandson from America 2012 WEB-DL 1080P H264 AAC-doraemon.mp4
  3. Format                         : MPEG-4
  4. Format profile                 : Base Media
  5. Codec ID                       : isom (isom/iso2/avc1/mp41)
  6. File size                      : 2.86 GiB
  7. Duration                       : 1 h 28 min
  8. Overall bit rate               : 4 628 kb/s
  9. Writing application            : Lavf58.12.100

  10. Video
  11. ID                             : 1
  12. Format                         : AVC
  13. Format/Info                    : Advanced Video Codec
  14. Format profile                 : [email]Main@L4.1[/email]
  15. Format settings                : CABAC / 4 Ref Frames
  16. Format settings, CABAC         : Yes
  17. Format settings, Reference fra : 4 frames
  18. Codec ID                       : avc1
  19. Codec ID/Info                  : Advanced Video Coding
  20. Duration                       : 1 h 28 min
  21. Bit rate                       : 4 496 kb/s
  22. Width                          : 1 920 pixels
  23. Height                         : 1 080 pixels
  24. Display aspect ratio           : 16:9
  25. Frame rate mode                : Constant
  26. Frame rate                     : 25.000 FPS
  27. Color space                    : YUV
  28. Chroma subsampling             : 4:2:0
  29. Bit depth                      : 8 bits
  30. Scan type                      : Progressive
  31. Bits/(Pixel*Frame)             : 0.087
  32. Stream size                    : 2.78 GiB (97%)
  33. Color range                    : Limited
  34. Color primaries                : BT.709
  35. Transfer characteristics       : BT.709
  36. Matrix coefficients            : BT.709
  37. Codec configuration box        : avcC

  38. Audio
  39. ID                             : 2
  40. Format                         : AAC LC
  41. Format/Info                    : Advanced Audio Codec Low Complexity
  42. Codec ID                       : mp4a-40-2
  43. Duration                       : 1 h 28 min
  44. Bit rate mode                  : Constant
  45. Bit rate                       : 125 kb/s
  46. Channel(s)                     : 2 channels
  47. Channel layout                 : L R
  48. Sampling rate                  : 48.0 kHz
  49. Frame rate                     : 46.875 FPS (1024 SPF)
  50. Compression mode               : Lossy
  51. Stream size                    : 79.3 MiB (3%)
  52. Default                        : Yes
  53. Alternate group                : 1
复制代码
孙子从美国来/当孙悟空遇上蜘蛛侠 [国语中字].A.Grandson.from.America.2012.WEB-DL.1080p.H.264.AAC-TAG 2.86GB-2.png
孙子从美国来/当孙悟空遇上蜘蛛侠 [国语中字].A.Grandson.from.America.2012.WEB-DL.1080p.H.264.AAC-TAG 2.86GB-3.png
孙子从美国来/当孙悟空遇上蜘蛛侠 [国语中字].A.Grandson.from.America.2012.WEB-DL.1080p.H.264.AAC-TAG 2.86GB-4.png






回复

使用道具 举报

蓝光币
1
发表于 2024-3-28 06:16:00 | 显示全部楼层
:loveliness::):victory:
回复

使用道具 举报

懒得打字嘛,点击右侧快捷回复 【右侧内容,后台自定义】
您需要登录后才可以回帖 登录 | 立即加入

本版积分规则

Copyright © 2024 Comsenz Inc. Powered by 蓝光电影网

本站内容由用户自主分享和转载自互联网,转载目的在于传递更多信息,并不代表本网赞同其观点和对其真实性负责。

如有侵权、违反国家法律政策行为,请联系我们,我们会第一时间及时清除和处理!

举报反馈邮箱:4k1080.com@gmail.com

快速回复 返回顶部 返回列表