找回密码

蓝光电影网

查看: 457|回复: 12

[10bit.SDR] 虫虫危机/虫虫特工队 A.Bugs.Life.1998.2160p.BluRay.x265.10bit.SDR.DTS-HD.MA.TrueHD.7.1.Atmos-SWTYBLZ 24.00GB

[复制链接]

 成长值: 25285

发表于 2020-3-6 20:39:26 | 显示全部楼层 |阅读模式
虫虫危机/虫虫特工队 A.Bugs.Life.1998.2160p.BluRay.x265.10bit.SDR.DTS-HD.MA.TrueHD.7.1.Atmos-SWTYBLZ 24.00GB-1.png

译  名 虫虫危机 / 虫虫特工队
片  名 A Bug's Life
年  代 1998
产  地 美国
类  别 喜剧 / 动画 / 冒险
语  言 英语
上映日期 1998-11-25(美国)
IMDb评分  7.2/10 from 255140 users
IMDb链接  https://www.imdb.com/title/tt0120623
豆瓣评分 7.9/10 from 74506 users
豆瓣链接 https://movie.douban.com/subject/1291573/
片  长 95 分钟
导  演 约翰·拉塞特 John Lasseter / 安德鲁·斯坦顿 Andrew Stanton
编  剧 安德鲁·斯坦顿 Andrew Stanton / Don McEnery / Bob Shaw
主  演 Dave Foley
       凯文·史派西 Kevin Spacey
       茱莉亚·路易斯-德瑞弗斯 Julia Louis-Dreyfus
       海顿·潘妮蒂尔 Hayden Panettiere


标  签 动画 | 美国 | 迪斯尼 | pixar | 动画片 | DISNEY | 美国电影 | 1998

简  介  

  菲力在蚂蚁王国里并不怎么受欢迎,尽管他发明了先进的收割机,然而阴差阳错,他竟然惹了大祸,公主妹妹小不点因此被蝗虫敌人捉去,而且蚂蚁的粮食也受到了蝗虫的威胁。即使菲力救出了小不点,但还是被赶出蚂蚁王国。只有他在外面的世界找到了对付蝗虫的办法,才有可能回到家园。
  菲力在城市中遇到了马戏团的一队昆虫。爬虫、蝴蝶、瓢虫、臭虫,他们都似乎身怀绝技,令菲力十分兴奋,于是菲力把他们请回蚂蚁王国对付蝗虫。一场恶战即将开始,昆虫们愈战愈勇,和菲力一同投入到斗争中。智勇双全的菲力也终于回到了蚂蚁王国中,受到大伙儿的赞赏。

获奖情况  

  第71届奥斯卡金像奖(1999)
  音乐/喜剧片最佳原创配乐(提名) 兰迪·纽曼

  第53届英国电影学院奖(2000)
  电影奖 最佳特殊视觉效果(提名) Eben Ostby / Bill Reeves / Rick Sayre / Sharon Calahan

  第27届动画安妮奖(1999)
  最佳动画长片(提名)
  最佳导演(提名) 安德鲁·斯坦顿 / 约翰·拉塞特
  最佳编剧(提名) 唐·麦肯内里 / 安德鲁·斯坦顿 / Bob Shaw / 约翰·拉塞特 / 乔·兰福特
  最佳艺术指导(提名) William Cone
  1. Video
  2. ID                                       : 1
  3. Format                                   : HEVC
  4. Format/Info                              : High Efficiency Video Coding
  5. Format profile                           : Main High@L4@High
  6. Codec ID                                 : V_MPEGH/ISO/HEVC
  7. Duration                                 : 1 h 34 min
  8. Bit rate                                 : 22.6 Mb/s
  9. Width                                    : 3 840 pixels
  10. Height                                   : 1 634 pixels
  11. Display aspect ratio                     : 2.35:1
  12. Frame rate mode                          : Constant
  13. Frame rate                               : 23.976 (24000/1001/189150) FPS
  14. Color space                              : YUV
  15. Chroma subsampling                       : 4:2:0
  16. Bit depth                                : 10 bits
  17. Bits/(Pixel*Frame)                       : 0.150
  18. Stream size                              : 15.0 GiB (63%)
  19. Title                                    : A.Bugs.Life.1998.2160p.BluRay.x265.10bit.SDR.DTS-HD.MA.TrueHD.7.1.Atmos-SWTYBLZ
  20. Writing library                          : x265 3.0ed72af837053:[Windows][GCC 8.2.0][64 bit] 10bit
  21. Encoding settings                        : cpuid=1111039 / frame-threads=6 / numa-pools=40 / wpp / no-pmode / no-pme / no-psnr / no-ssim / log-level=2 / input-csp=1 / input-res=3840x1634 / interlace=0 / total-frames=136528 / level-idc=51 / high-tier=1 / uhd-bd=0 / ref=3 / no-allow-non-conformance / repeat-headers / annexb / aud / hrd / info / hash=0 / no-temporal-layers / no-open-gop / min-keyint=1 / keyint=24 / gop-lookahead=0 / bframes=6 / b-adapt=2 / b-pyramid / bframe-bias=0 / rc-lookahead=25 / lookahead-slices=4 / scenecut=40 / radl=0 / no-splice / no-intra-refresh / ctu=64 / min-cu-size=8 / no-rect / no-amp / max-tu-size=32 / tu-inter-depth=1 / tu-intra-depth=1 / limit-tu=0 / rdoq-level=0 / dynamic-rd=0.00 / no-ssim-rd / signhide / no-tskip / nr-intra=0 / nr-inter=0 / no-constrained-intra / strong-intra-smoothing / max-merge=2 / limit-refs=3 / no-limit-modes / me=1 / subme=2 / merange=57 / temporal-mvp / weightp / no-weightb / no-analyze-src-pics / deblock=1:1 / no-sao / no-sao-non-deblock / rd=3 / no-early-skip / rskip / no-fast-intra / no-tskip-fast / no-cu-lossless / no-b-intra / no-splitrd-skip / rdpenalty=0 / psy-rd=0.40 / psy-rdoq=0.00 / no-rd-refine / no-lossless / cbqpoffs=0 / crqpoffs=0 / rc=crf / crf=16.0 / qcomp=0.60 / qpstep=4 / stats-write=0 / stats-read=0 / vbv-maxrate=160000 / vbv-bufsize=160000 / vbv-init=0.9 / crf-max=0.0 / crf-min=0.0 / ipratio=1.40 / pbratio=1.30 / aq-mode=1 / aq-strength=0.40 / cutree / zone-count=0 / no-strict-cbr / qg-size=32 / no-rc-grain / qpmax=69 / qpmin=0 / no-const-vbv / sar=1 / overscan=0 / videoformat=5 / range=0 / colorprim=2 / transfer=2 / colormatrix=2 / chromaloc=0 / display-window=0 / max-cll=0,0 / min-luma=0 / max-luma=1023 / log2-max-poc-lsb=8 / vui-timing-info / vui-hrd-info / slices=1 / opt-qp-pps / opt-ref-list-length-pps / no-multi-pass-opt-rps / scenecut-bias=0.05 / no-opt-cu-delta-qp / no-aq-motion / no-hdr / no-hdr-opt / no-dhdr10-opt / no-idr-recovery-sei / analysis-reuse-level=5 / scale-factor=0 / refine-intra=0 / refine-inter=0 / refine-mv=0 / refine-ctu-distortion=0 / no-limit-sao / ctu-info=0 / no-lowpass-dct / refine-analysis-type=0 / copy-pic=1 / max-ausize-factor=1.0 / no-dynamic-refine / no-single-sei / no-hevc-aq / qp-adaptation-range=1.00
  22. Default                                  : Yes
  23. Forced                                   : No

  24. Audio #1
  25. ID                                       : 2
  26. Format                                   : MLP FBA 16-ch
  27. Format/Info                              : Meridian Lossless Packing FBA with 16-channel presentation
  28. Commercial name                          : Dolby TrueHD with Dolby Atmos
  29. Codec ID                                 : A_TRUEHD
  30. Duration                                 : 1 h 34 min
  31. Bit rate mode                            : Variable
  32. Bit rate                                 : 8 178 kb/s
  33. Maximum bit rate                         : 8 088 kb/s
  34. Channel(s)                               : 8 channels
  35. Channel layout                           : L R C LFE Ls Rs Lb Rb
  36. Sampling rate                            : 48.0 kHz
  37. Frame rate                               : 1 200.000 FPS (40 SPF)
  38. Compression mode                         : Lossless
  39. Stream size                              : 5.42 GiB (23%)
  40. Title                                    : A.Bugs.Life.1998.2160p.BluRay.x265.10bit.SDR.DTS-HD.MA.TrueHD.7.1.Atmos-SWTYBLZ
  41. Language                                 : English
  42. Default                                  : Yes
  43. Forced                                   : No
  44. Number of dynamic objects                : 13
  45. Bed channel count                        : 1 channel
  46. Bed channel configuration                : LFE

  47. Audio #2
  48. ID                                       : 3
  49. Format                                   : DTS XLL
  50. Format/Info                              : Digital Theater Systems
  51. Commercial name                          : DTS-HD Master Audio
  52. Codec ID                                 : A_DTS
  53. Duration                                 : 1 h 34 min
  54. Bit rate mode                            : Variable
  55. Bit rate                                 : 4 546 kb/s
  56. Channel(s)                               : 8 channels
  57. Channel layout                           : C L R LFE Lb Rb Lss Rss
  58. Sampling rate                            : 48.0 kHz
  59. Frame rate                               : 93.750 FPS (512 SPF)
  60. Bit depth                                : 24 bits
  61. Compression mode                         : Lossless
  62. Stream size                              : 3.01 GiB (13%)
  63. Title                                    : A.Bugs.Life.1998.2160p.BluRay.x265.10bit.SDR.DTS-HD.MA.TrueHD.7.1.Atmos-SWTYBLZ
  64. Language                                 : English
  65. Default                                  : No
  66. Forced                                   : No

  67. Audio #3
  68. ID                                       : 4
  69. Format                                   : AC-3
  70. Format/Info                              : Audio Coding 3
  71. Commercial name                          : Dolby Digital
  72. Codec ID                                 : A_AC3
  73. Duration                                 : 1 h 34 min
  74. Bit rate mode                            : Constant
  75. Bit rate                                 : 640 kb/s
  76. Channel(s)                               : 6 channels
  77. Channel layout                           : L R C LFE Ls Rs
  78. Sampling rate                            : 48.0 kHz
  79. Frame rate                               : 31.250 FPS (1536 SPF)
  80. Compression mode                         : Lossy
  81. Stream size                              : 434 MiB (2%)
  82. Title                                    : A.Bugs.Life.1998.2160p.BluRay.x265.10bit.SDR.DTS-HD.MA.TrueHD.7.1.Atmos-SWTYBLZ
  83. Language                                 : English
  84. Service kind                             : Complete Main
  85. Default                                  : No
  86. Forced                                   : No

  87. Text #1
  88. ID                                       : 5
  89. Format                                   : UTF-8
  90. Codec ID                                 : S_TEXT/UTF8
  91. Codec ID/Info                            : UTF-8 Plain Text
  92. Duration                                 : 1 h 32 min
  93. Bit rate                                 : 69 b/s
  94. Count of elements                        : 1282
  95. Stream size                              : 47.4 KiB (0%)
  96. Title                                    : English-SRT
  97. Language                                 : English
  98. Default                                  : Yes
  99. Forced                                   : No

  100. Text #2
  101. ID                                       : 6
  102. Format                                   : PGS
  103. Muxing mode                              : zlib
  104. Codec ID                                 : S_HDMV/PGS
  105. Codec ID/Info                            : Picture based subtitle format used on BDs/HD-DVDs
  106. Duration                                 : 1 h 34 min
  107. Bit rate                                 : 46.4 kb/s
  108. Count of elements                        : 2998
  109. Stream size                              : 31.5 MiB (0%)
  110. Title                                    : English-PGS
  111. Language                                 : English
  112. Default                                  : No
  113. Forced                                   : No

  114. Text #3
  115. ID                                       : 7
  116. Format                                   : PGS
  117. Muxing mode                              : zlib
  118. Codec ID                                 : S_HDMV/PGS
  119. Codec ID/Info                            : Picture based subtitle format used on BDs/HD-DVDs
  120. Duration                                 : 1 h 32 min
  121. Bit rate                                 : 40.0 kb/s
  122. Count of elements                        : 2436
  123. Stream size                              : 26.4 MiB (0%)
  124. Title                                    : French-PGS
  125. Language                                 : French
  126. Default                                  : No
  127. Forced                                   : No

  128. Text #4
  129. ID                                       : 8
  130. Format                                   : PGS
  131. Muxing mode                              : zlib
  132. Codec ID                                 : S_HDMV/PGS
  133. Codec ID/Info                            : Picture based subtitle format used on BDs/HD-DVDs
  134. Duration                                 : 1 h 32 min
  135. Bit rate                                 : 37.9 kb/s
  136. Count of elements                        : 2436
  137. Stream size                              : 25.0 MiB (0%)
  138. Title                                    : Spanish-PGS
  139. Language                                 : Spanish
  140. Default                                  : No
  141. Forced                                   : No

  142. Menu
  143. 00:00:00.000                             : en:Chapter 01
  144. 00:04:29.143                             : en:Chapter 02
  145. 00:07:52.638                             : en:Chapter 03
  146. 00:09:52.633                             : en:Chapter 04
  147. 00:15:19.293                             : en:Chapter 05
  148. 00:17:19.830                             : en:Chapter 06
  149. 00:18:56.426                             : en:Chapter 07
  150. 00:20:05.120                             : en:Chapter 08
  151. 00:26:08.316                             : en:Chapter 09
  152. 00:27:49.501                             : en:Chapter 10
  153. 00:31:29.804                             : en:Chapter 11
  154. 00:32:43.670                             : en:Chapter 12
  155. 00:35:57.655                             : en:Chapter 13
  156. 00:39:42.880                             : en:Chapter 14
  157. 00:41:27.276                             : en:Chapter 15
  158. 00:45:08.914                             : en:Chapter 16
  159. 00:45:49.997                             : en:Chapter 17
  160. 00:47:17.334                             : en:Chapter 18
  161. 00:49:13.992                             : en:Chapter 19
  162. 00:52:51.293                             : en:Chapter 20
  163. 00:56:36.643                             : en:Chapter 21
  164. 00:58:49.526                             : en:Chapter 22
  165. 01:02:24.615                             : en:Chapter 23
  166. 01:04:27.613                             : en:Chapter 24
  167. 01:05:30.718                             : en:Chapter 25
  168. 01:06:47.378                             : en:Chapter 26
  169. 01:10:02.281                             : en:Chapter 27
  170. 01:10:49.745                             : en:Chapter 28
  171. 01:15:15.802                             : en:Chapter 29
  172. 01:17:29.978                             : en:Chapter 30
  173. 01:20:00.754                             : en:Chapter 31
  174. 01:21:13.577                             : en:Chapter 32
  175. 01:23:05.772                             : en:Chapter 33
  176. 01:24:16.593                             : en:Chapter 34
  177. 01:28:31.014                             : en:Chapter 35
  178. 01:29:56.599                             : en:Chapter 36
复制代码

虫虫危机/虫虫特工队 A.Bugs.Life.1998.2160p.BluRay.x265.10bit.SDR.DTS-HD.MA.TrueHD.7.1.Atmos-SWTYBLZ 24.00GB-2.png 虫虫危机/虫虫特工队 A.Bugs.Life.1998.2160p.BluRay.x265.10bit.SDR.DTS-HD.MA.TrueHD.7.1.Atmos-SWTYBLZ 24.00GB-3.png 虫虫危机/虫虫特工队 A.Bugs.Life.1998.2160p.BluRay.x265.10bit.SDR.DTS-HD.MA.TrueHD.7.1.Atmos-SWTYBLZ 24.00GB-4.png 虫虫危机/虫虫特工队 A.Bugs.Life.1998.2160p.BluRay.x265.10bit.SDR.DTS-HD.MA.TrueHD.7.1.Atmos-SWTYBLZ 24.00GB-5.png 虫虫危机/虫虫特工队 A.Bugs.Life.1998.2160p.BluRay.x265.10bit.SDR.DTS-HD.MA.TrueHD.7.1.Atmos-SWTYBLZ 24.00GB-6.png 08760213715190338337_medium.png 虫虫危机/虫虫特工队 A.Bugs.Life.1998.2160p.BluRay.x265.10bit.SDR.DTS-HD.MA.TrueHD.7.1.Atmos-SWTYBLZ 24.00GB-8.png






回复

使用道具 举报

发表于 2020-3-6 23:41:37 | 显示全部楼层
楼主发贴辛苦了,谢谢楼主分享!我觉得蓝光电影网是注册对了!
回复 支持 反对

使用道具 举报

发表于 2020-3-7 08:42:29 | 显示全部楼层
楼主发贴辛苦了,谢谢楼主分享!我觉得蓝光电影网是注册对了!
回复 支持 反对

使用道具 举报

发表于 2020-3-7 10:59:34 | 显示全部楼层

这东西我收了!谢谢楼主!蓝光电影网真好!
这个画质更好啊
回复 支持 反对

使用道具 举报

发表于 2020-3-7 11:55:28 | 显示全部楼层
楼主发贴辛苦了,谢谢楼主分享!我觉得蓝光电影网是注册对了!
回复 支持 反对

使用道具 举报

发表于 2020-3-8 13:29:41 | 显示全部楼层

这个帖子不回对不起自己!我想我是一天也不能离开蓝光电影网
回复 支持 反对

使用道具 举报

发表于 2020-3-8 15:48:44 | 显示全部楼层
这个画质更好啊
回复 支持 反对

使用道具 举报

发表于 2020-3-8 22:15:55 | 显示全部楼层
都是英文啊,没有普通话版本
回复 支持 反对

使用道具 举报

发表于 2020-3-10 00:35:32 | 显示全部楼层
经典不错,哈哈
回复 支持 反对

使用道具 举报

发表于 2020-3-10 17:29:48 | 显示全部楼层

这东西我收了!谢谢楼主!蓝光电影网真好!
回复 支持 反对

使用道具 举报

懒得打字嘛,点击右侧快捷回复 【右侧内容,后台自定义】
您需要登录后才可以回帖 登录 | 立即加入

本版积分规则

现在加入蓝光电影网,注册一个账号
上个主题 下个主题 快速回复 收藏帖子 返回列表 客服中心 搜索

手机版|小黑屋| 蓝光电影网 |网站地图 

Copyright © 2015-2019 Comsenz Inc.  Template by 蓝光电影论坛 All Rights Reserved.

Powered by 蓝光电影网 X3.4

特别声明:本站所有资源均由网上收集而来,版权归原影音公司所有,如果侵犯了你的权益,请通知我们,我们会及时删除侵权内容.

快速回复 返回顶部 返回列表