找回密码

查看: 766|回复: 6

[2160p-WEB] 阿盖尔:神秘特工.Argylle.2024.Eng.Fre.Ger.Ita.Por.Spa.2160p.WEBMux.DV.HEVC.Atmos-SGF 28.82GB

[复制链接]
蓝光币
1858
发表于 2024-3-29 15:19:29 | 显示全部楼层 |阅读模式


◎译  名 阿盖尔:奥秘奸细 / 机密特务:阿盖尔(台) / 奸细亚皆老(港) / 阿吉尔 / 闪烁师长 / 特务亚盖尔
◎片  名 Argylle
◎年  代 2024
◎产  地 英国 / 美国
◎类  别 行动 / 惊悚
◎语  言 英语
◎上映日期 2024-01-31(法国) / 2024-02-02(美国) / 2024-02-23(中国大陆)
◎IMDb评星  ★★★★★✦☆☆☆☆
◎IMDb评分  5.7/10 from 46,692 users
◎IMDb链接  https://www.imdb.com/title/tt15009428/
◎豆瓣评星 ★★★☆☆
◎豆瓣评分 5.8/10 from 21,708 users
◎豆瓣链接 https://movie.douban.com/subject/35520056/
◎片  长 139分钟
◎导  演 马修·沃恩 / Matthew Vaughn
◎演  员 布莱丝·达拉斯·霍华德 / Bryce Dallas Howard | 饰 叶利·康韦 Elly Conway / 瑞秋·凯尔 Rachel Kylle
      山姆·洛克威尔 / Sam Rockwell | 饰 艾登·怀尔德 Aiden Wilde
      亨利·卡维尔 / Henry Cavill | 饰 阿盖尔 Argylle
      塞缪尔·杰克逊 / Samuel L. Jackson | 饰 阿尔弗雷德·所罗门 Alfred Solomon
      布莱恩·克兰斯顿 / Bryan Cranston | 饰 巴里·康韦 Barry Conway / 里特尔 Director Ritter
      凯瑟琳·欧哈拉 / Catherine O'Hara | 饰 露丝·康韦 Ruth Conway / 玛格丽特·沃格勒 Margaret Vogler
      奇普 / Chip | 饰 阿尔菲 Alfie
      阿丽亚娜·德博斯 / Ariana DeBose | 饰 琪拉 Keira
      杜阿·利帕 / Dua Lipa | 饰 勒格朗奇 Lagrange
      约翰·塞纳 / John Cena | 饰 怀亚特 Wyatt
      索菲亚·波多拉 / Sofia Boutella | 饰 萨巴·阿尔-巴德尔 Saba Al-Badr
      理查德·E·格兰特 / Richard E. Grant | 饰 富勒 Fowler
      罗伯·德兰尼 / Rob Delaney | 饰 鲍威尔 Deputy Director Powell
      陆思敬 / Jing Lusi | 饰 李蜜斯 Miss Li
      路易斯·帕特里奇 / Louis Partridge | 饰 奥布里·阿盖尔 Aubrey Argylle
      本·丹尼尔斯 / Ben Daniels | 饰 金士曼侍者 Bartender
      斯坦利·摩根 / Stanley Morgan | 饰 巴枯宁 Bakunin
      托米瓦·埃敦 / Tomiwa Edun | 饰 诺兰 Deputy Nolan
      托马斯·帕雷德斯 / Tomás Paredes | 饰 卡洛斯 Carlos
      贾森·福克斯 / Jason Fuchs | 饰 Moderator
      格雷西亚·德拉巴斯 / Grecia De la Paz | 饰 Greek Agent
      阿拉·哈比卜 / Alaa Habib | 饰 Zoe
      菲奥娜·马尔 / Fiona Marr | 饰 Bar Woman
      鲍比·霍兰德·汉顿 / Bobby Holland Hanton | 饰 Enforcer 1
      阿尔弗雷多·塔瓦雷斯 / Alfredo Tavares | 饰 Marcus
      丹尼尔·辛格 / Daniel Singh | 饰 Armed Guard 1
      康提·罗曼 / Kandy Rohmann | 饰 Train Conductor
       Greg Townley | 饰 Enforcer #2
       Clementine Vaughn | 饰 Fan #2
       Raagni Sharma | 饰 Fan #1
       Chip | 饰 Alfie the Cat
       Diljohn Singh | 饰 1st Class Passenger #1
◎编  剧 贾森·福克斯 / Jason Fuchs
◎制  片  人 马修·沃恩 / Matthew Vaughn
      贾森·福克斯 / Jason Fuchs
      克劳迪亚·席弗 / Claudia Schiffer
◎音  乐 洛内·巴尔菲 / Lorne Balfe
◎摄  影 乔治·瑞奇蒙 / George Richmond
◎剪  辑 李·史姑娘 / Lee Smith
◎美  术 丹尼尔·泰勒 / Daniel Taylor
◎服  装 斯蒂芬妮·科里 /  Stephanie Collie
◎行动特技 杨亮 / Liang Yang
◎简  介 
  影片围绕特务小说作家叶利·康韦(布莱丝·达拉斯·霍华德 Bryce Dallas Howard 饰)的作品展开。叶利的小说报告奥秘奸细阿盖尔(亨利·卡维尔 Henry Cavill 饰)及其崩溃全球特务团体的使命,而小说中的情节却意外起头与实在特务构造的奥秘行动出现惊人 的分歧。在奸细艾登(山姆·洛克威尔 Sam Rockwell 饰)的伴随下,叶利带着猫咪阿尔菲(Chip 饰)穿越天下,极力赶在特务构造的杀手们行动之前化解危机,此时小说的虚拟天下与现实之间的界限起头变得模糊不清。随之而来的是一场跨越全球的冒险。
  1. General
  2. Unique ID: 263182912186761692180155331884804310854 (0xC5FF2F658AA73A947D451A6A5BDD8746)
  3. Complete name: Argylle.2024.Eng.Fre.Ger.Ita.Por.Spa.2160p.WEBMux.DV.HEVC.Atmos-SGF.mkv
  4. Format: Matroska
  5. Format version: Version 4
  6. File size: 28.8 GiB
  7. Duration: 2 h 18 min
  8. Overall bit rate: 29.8 Mb/s
  9. Frame rate: 23.976 FPS
  10. Encoded date: 2024-03-27 05:23:24 UTC
  11. Writing application: mkvmerge v83.0 ('Circle Of Friends') 64-bit
  12. Writing library: libebml v1.4.5 + libmatroska v1.7.1
  13. Video
  14. ID: 1
  15. Format: HEVC
  16. Format/Info: High Efficiency Video Coding
  17. Format profile: Main 10@L5@High
  18. HDR format: Dolby Vision, Version 1.0, Profile 5, dvhe.05.06, BL+RPU
  19. Codec ID: V_MPEGH/ISO/HEVC
  20. Duration: 2 h 18 min
  21. Bit rate: 24.4 Mb/s
  22. Width: 3 840 pixels
  23. Height: 1 604 pixels
  24. Display aspect ratio: 2.39:1
  25. Frame rate mode: Constant
  26. Frame rate: 23.976 (24000/1001) FPS
  27. Color space: YUV
  28. Chroma subsampling: 4:2:0
  29. Bit depth: 10 bits
  30. Bits/(Pixel*Frame): 0.165
  31. Stream size: 23.6 GiB (82%)
  32. Default: Yes
  33. Forced: No
  34. Audio 1
  35. ID: 2
  36. Format: E-AC-3 JOC
  37. Format/Info: Enhanced AC-3 with Joint Object Coding
  38. Commercial name: Dolby Digital Plus with Dolby Atmos
  39. Codec ID: A_EAC3
  40. Duration: 2 h 18 min
  41. Bit rate mode: Constant
  42. Bit rate: 768 kb/s
  43. Channel(s): 6 channels
  44. Channel layout: L R C LFE Ls Rs
  45. Sampling rate: 48.0 kHz
  46. Frame rate: 31.250 FPS (1536 SPF)
  47. Compression mode: Lossy
  48. Stream size: 762 MiB (3%)
  49. Title: English [Dolby Digital Plus Atmos 5.1]
  50. Language: English
  51. Service kind: Complete Main
  52. Default: Yes
  53. Forced: No
  54. Complexity index: 16
  55. Number of dynamic objects: 15
  56. Bed channel count: 1 channel
  57. Bed channel configuration: LFE
  58. Audio 2
  59. ID: 3
  60. Format: E-AC-3 JOC
  61. Format/Info: Enhanced AC-3 with Joint Object Coding
  62. Commercial name: Dolby Digital Plus with Dolby Atmos
  63. Codec ID: A_EAC3
  64. Duration: 2 h 18 min
  65. Bit rate mode: Constant
  66. Bit rate: 768 kb/s
  67. Channel(s): 6 channels
  68. Channel layout: L R C LFE Ls Rs
  69. Sampling rate: 48.0 kHz
  70. Frame rate: 31.250 FPS (1536 SPF)
  71. Compression mode: Lossy
  72. Stream size: 762 MiB (3%)
  73. Title: French (France) [Dolby Digital Plus Atmos 5.1]
  74. Language: French (FR)
  75. Service kind: Complete Main
  76. Default: No
  77. Forced: No
  78. Complexity index: 16
  79. Number of dynamic objects: 15
  80. Bed channel count: 1 channel
  81. Bed channel configuration: LFE
  82. Audio 3
  83. ID: 4
  84. Format: E-AC-3 JOC
  85. Format/Info: Enhanced AC-3 with Joint Object Coding
  86. Commercial name: Dolby Digital Plus with Dolby Atmos
  87. Codec ID: A_EAC3
  88. Duration: 2 h 18 min
  89. Bit rate mode: Constant
  90. Bit rate: 768 kb/s
  91. Channel(s): 6 channels
  92. Channel layout: L R C LFE Ls Rs
  93. Sampling rate: 48.0 kHz
  94. Frame rate: 31.250 FPS (1536 SPF)
  95. Compression mode: Lossy
  96. Stream size: 762 MiB (3%)
  97. Title: German [Dolby Digital Plus Atmos 5.1]
  98. Language: German
  99. Service kind: Complete Main
  100. Default: No
  101. Forced: No
  102. Complexity index: 16
  103. Number of dynamic objects: 15
  104. Bed channel count: 1 channel
  105. Bed channel configuration: LFE
  106. Audio 4
  107. ID: 5
  108. Format: E-AC-3 JOC
  109. Format/Info: Enhanced AC-3 with Joint Object Coding
  110. Commercial name: Dolby Digital Plus with Dolby Atmos
  111. Codec ID: A_EAC3
  112. Duration: 2 h 18 min
  113. Bit rate mode: Constant
  114. Bit rate: 768 kb/s
  115. Channel(s): 6 channels
  116. Channel layout: L R C LFE Ls Rs
  117. Sampling rate: 48.0 kHz
  118. Frame rate: 31.250 FPS (1536 SPF)
  119. Compression mode: Lossy
  120. Stream size: 762 MiB (3%)
  121. Title: Italian [Dolby Digital Plus Atmos 5.1]
  122. Language: Italian
  123. Service kind: Complete Main
  124. Default: No
  125. Forced: No
  126. Complexity index: 16
  127. Number of dynamic objects: 15
  128. Bed channel count: 1 channel
  129. Bed channel configuration: LFE
  130. Audio 5
  131. ID: 6
  132. Format: E-AC-3 JOC
  133. Format/Info: Enhanced AC-3 with Joint Object Coding
  134. Commercial name: Dolby Digital Plus with Dolby Atmos
  135. Codec ID: A_EAC3
  136. Duration: 2 h 18 min
  137. Bit rate mode: Constant
  138. Bit rate: 768 kb/s
  139. Channel(s): 6 channels
  140. Channel layout: L R C LFE Ls Rs
  141. Sampling rate: 48.0 kHz
  142. Frame rate: 31.250 FPS (1536 SPF)
  143. Compression mode: Lossy
  144. Stream size: 762 MiB (3%)
  145. Title: Portuguese (Brazil) [Dolby Digital Plus Atmos 5.1]
  146. Language: Portuguese (BR)
  147. Service kind: Complete Main
  148. Default: No
  149. Forced: No
  150. Complexity index: 16
  151. Number of dynamic objects: 15
  152. Bed channel count: 1 channel
  153. Bed channel configuration: LFE
  154. Audio 6
  155. ID: 7
  156. Format: E-AC-3 JOC
  157. Format/Info: Enhanced AC-3 with Joint Object Coding
  158. Commercial name: Dolby Digital Plus with Dolby Atmos
  159. Codec ID: A_EAC3
  160. Duration: 2 h 18 min
  161. Bit rate mode: Constant
  162. Bit rate: 768 kb/s
  163. Channel(s): 6 channels
  164. Channel layout: L R C LFE Ls Rs
  165. Sampling rate: 48.0 kHz
  166. Frame rate: 31.250 FPS (1536 SPF)
  167. Compression mode: Lossy
  168. Stream size: 762 MiB (3%)
  169. Title: Spanish (Spain) [Dolby Digital Plus Atmos 5.1]
  170. Language: Spanish (ES)
  171. Service kind: Complete Main
  172. Default: No
  173. Forced: No
  174. Complexity index: 16
  175. Number of dynamic objects: 15
  176. Bed channel count: 1 channel
  177. Bed channel configuration: LFE
  178. Audio 7
  179. ID: 8
  180. Format: E-AC-3 JOC
  181. Format/Info: Enhanced AC-3 with Joint Object Coding
  182. Commercial name: Dolby Digital Plus with Dolby Atmos
  183. Codec ID: A_EAC3
  184. Duration: 2 h 18 min
  185. Bit rate mode: Constant
  186. Bit rate: 768 kb/s
  187. Channel(s): 6 channels
  188. Channel layout: L R C LFE Ls Rs
  189. Sampling rate: 48.0 kHz
  190. Frame rate: 31.250 FPS (1536 SPF)
  191. Compression mode: Lossy
  192. Stream size: 762 MiB (3%)
  193. Title: Spanish (Latin America) [Dolby Digital Plus Atmos 5.1]
  194. Language: Spanish (Latin America)
  195. Service kind: Complete Main
  196. Default: No
  197. Forced: No
  198. Complexity index: 16
  199. Number of dynamic objects: 15
  200. Bed channel count: 1 channel
  201. Bed channel configuration: LFE
  202. Text 1
  203. ID: 9
  204. Format: UTF-8
  205. Codec ID: S_TEXT/UTF8
  206. Codec ID/Info: UTF-8 Plain Text
  207. Duration: 2 h 10 min
  208. Bit rate: 55 b/s
  209. Frame rate: 0.219 FPS
  210. Count of elements: 1714
  211. Stream size: 53.3 KiB (0%)
  212. Title: English [Full]
  213. Language: English
  214. Default: No
  215. Forced: No
  216. Text 2
  217. ID: 10
  218. Format: UTF-8
  219. Codec ID: S_TEXT/UTF8
  220. Codec ID/Info: UTF-8 Plain Text
  221. Duration: 2 h 15 min
  222. Bit rate: 64 b/s
  223. Frame rate: 0.254 FPS
  224. Count of elements: 2060
  225. Stream size: 63.5 KiB (0%)
  226. Title: English [SDH]
  227. Language: English
  228. Default: No
  229. Forced: No
  230. Text 3
  231. ID: 11
  232. Format: UTF-8
  233. Codec ID: S_TEXT/UTF8
  234. Codec ID/Info: UTF-8 Plain Text
  235. Duration: 2 h 17 min
  236. Bit rate: 49 b/s
  237. Frame rate: 0.228 FPS
  238. Count of elements: 1876
  239. Stream size: 49.7 KiB (0%)
  240. Title: French (France) [Full]
  241. Language: French (FR)
  242. Default: No
  243. Forced: No
  244. Text 4
  245. ID: 12
  246. Format: UTF-8
  247. Codec ID: S_TEXT/UTF8
  248. Codec ID/Info: UTF-8 Plain Text
  249. Duration: 2 h 8 min
  250. Bit rate: 0 b/s
  251. Frame rate: 0.002 FPS
  252. Count of elements: 13
  253. Stream size: 300 Bytes (0%)
  254. Title: French (France) [Forced]
  255. Language: French (FR)
  256. Default: No
  257. Forced: No
  258. Text 5
  259. ID: 13
  260. Format: UTF-8
  261. Codec ID: S_TEXT/UTF8
  262. Codec ID/Info: UTF-8 Plain Text
  263. Duration: 2 h 17 min
  264. Bit rate: 54 b/s
  265. Frame rate: 0.189 FPS
  266. Count of elements: 1560
  267. Stream size: 54.9 KiB (0%)
  268. Title: German [Full]
  269. Language: German
  270. Default: No
  271. Forced: No
  272. Text 6
  273. ID: 14
  274. Format: UTF-8
  275. Codec ID: S_TEXT/UTF8
  276. Codec ID/Info: UTF-8 Plain Text
  277. Duration: 2 h 8 min
  278. Bit rate: 0 b/s
  279. Frame rate: 0.002 FPS
  280. Count of elements: 16
  281. Stream size: 414 Bytes (0%)
  282. Title: German [Forced]
  283. Language: German
  284. Default: No
  285. Forced: No
  286. Text 7
  287. ID: 15
  288. Format: UTF-8
  289. Codec ID: S_TEXT/UTF8
  290. Codec ID/Info: UTF-8 Plain Text
  291. Duration: 2 h 17 min
  292. Bit rate: 51 b/s
  293. Frame rate: 0.209 FPS
  294. Count of elements: 1730
  295. Stream size: 51.7 KiB (0%)
  296. Title: Italian [Full]
  297. Language: Italian
  298. Default: No
  299. Forced: No
  300. Text 8
  301. ID: 16
  302. Format: UTF-8
  303. Codec ID: S_TEXT/UTF8
  304. Codec ID/Info: UTF-8 Plain Text
  305. Duration: 2 h 11 min
  306. Bit rate: 0 b/s
  307. Frame rate: 0.005 FPS
  308. Count of elements: 38
  309. Stream size: 903 Bytes (0%)
  310. Title: Italian [Forced]
  311. Language: Italian
  312. Default: No
  313. Forced: No
  314. Text 9
  315. ID: 17
  316. Format: UTF-8
  317. Codec ID: S_TEXT/UTF8
  318. Codec ID/Info: UTF-8 Plain Text
  319. Duration: 2 h 17 min
  320. Bit rate: 52 b/s
  321. Frame rate: 0.207 FPS
  322. Count of elements: 1705
  323. Stream size: 52.9 KiB (0%)
  324. Title: Portuguese (Brazil) [Full]
  325. Language: Portuguese (BR)
  326. Default: No
  327. Forced: No
  328. Text 10
  329. ID: 18
  330. Format: UTF-8
  331. Codec ID: S_TEXT/UTF8
  332. Codec ID/Info: UTF-8 Plain Text
  333. Duration: 2 h 8 min
  334. Bit rate: 1 b/s
  335. Frame rate: 0.006 FPS
  336. Count of elements: 50
  337. Stream size: 1.34 KiB (0%)
  338. Title: Portuguese (Brazil) [Forced]
  339. Language: Portuguese (BR)
  340. Default: No
  341. Forced: No
  342. Text 11
  343. ID: 19
  344. Format: UTF-8
  345. Codec ID: S_TEXT/UTF8
  346. Codec ID/Info: UTF-8 Plain Text
  347. Duration: 2 h 17 min
  348. Bit rate: 51 b/s
  349. Frame rate: 0.210 FPS
  350. Count of elements: 1725
  351. Stream size: 51.5 KiB (0%)
  352. Title: Spanish (Spain) [Full]
  353. Language: Spanish (ES)
  354. Default: No
  355. Forced: No
  356. Text 12
  357. ID: 20
  358. Format: UTF-8
  359. Codec ID: S_TEXT/UTF8
  360. Codec ID/Info: UTF-8 Plain Text
  361. Duration: 2 h 8 min
  362. Bit rate: 1 b/s
  363. Frame rate: 0.007 FPS
  364. Count of elements: 55
  365. Stream size: 1.24 KiB (0%)
  366. Title: Spanish (Spain) [Forced]
  367. Language: Spanish (ES)
  368. Default: No
  369. Forced: No
  370. Text 13
  371. ID: 21
  372. Format: UTF-8
  373. Codec ID: S_TEXT/UTF8
  374. Codec ID/Info: UTF-8 Plain Text
  375. Duration: 2 h 17 min
  376. Bit rate: 52 b/s
  377. Frame rate: 0.214 FPS
  378. Count of elements: 1768
  379. Stream size: 53.2 KiB (0%)
  380. Title: Spanish (Latin America) [Full]
  381. Language: Spanish (Latin America)
  382. Default: No
  383. Forced: No
  384. Text 14
  385. ID: 22
  386. Format: UTF-8
  387. Codec ID: S_TEXT/UTF8
  388. Codec ID/Info: UTF-8 Plain Text
  389. Duration: 2 h 11 min
  390. Bit rate: 1 b/s
  391. Frame rate: 0.006 FPS
  392. Count of elements: 50
  393. Stream size: 1.36 KiB (0%)
  394. Title: Spanish (Latin America) [Forced]
  395. Language: Spanish (Latin America)
  396. Default: No
  397. Forced: No
  398. Text 15
  399. ID: 23
  400. Format: UTF-8
  401. Codec ID: S_TEXT/UTF8
  402. Codec ID/Info: UTF-8 Plain Text
  403. Duration: 2 h 17 min
  404. Bit rate: 84 b/s
  405. Frame rate: 0.216 FPS
  406. Count of elements: 1777
  407. Stream size: 84.9 KiB (0%)
  408. Title: Arabic [Full]
  409. Language: Arabic
  410. Default: No
  411. Forced: No
  412. Text 16
  413. ID: 24
  414. Format: UTF-8
  415. Codec ID: S_TEXT/UTF8
  416. Codec ID/Info: UTF-8 Plain Text
  417. Duration: 2 h 17 min
  418. Bit rate: 76 b/s
  419. Frame rate: 0.164 FPS
  420. Count of elements: 1346
  421. Stream size: 77.0 KiB (0%)
  422. Title: Bulgarian [Full]
  423. Language: Bulgarian
  424. Default: No
  425. Forced: No
  426. Text 17
  427. ID: 25
  428. Format: UTF-8
  429. Codec ID: S_TEXT/UTF8
  430. Codec ID/Info: UTF-8 Plain Text
  431. Duration: 2 h 17 min
  432. Bit rate: 42 b/s
  433. Frame rate: 0.215 FPS
  434. Count of elements: 1774
  435. Stream size: 43.0 KiB (0%)
  436. Title: Chinese (Cantonese) [Full]
  437. Language: Cantonese (Hant)
  438. Default: No
  439. Forced: No
  440. Text 18
  441. ID: 26
  442. Format: UTF-8
  443. Codec ID: S_TEXT/UTF8
  444. Codec ID/Info: UTF-8 Plain Text
  445. Duration: 2 h 17 min
  446. Bit rate: 48 b/s
  447. Frame rate: 0.216 FPS
  448. Count of elements: 1775
  449. Stream size: 48.4 KiB (0%)
  450. Title: Chinese (Simplified) [Full]
  451. Language: Mandarin (Hans)
  452. Default: No
  453. Forced: No
  454. Text 19
  455. ID: 27
  456. Format: UTF-8
  457. Codec ID: S_TEXT/UTF8
  458. Codec ID/Info: UTF-8 Plain Text
  459. Duration: 2 h 17 min
  460. Bit rate: 45 b/s
  461. Frame rate: 0.215 FPS
  462. Count of elements: 1777
  463. Stream size: 45.6 KiB (0%)
  464. Title: Chinese (Traditional) [Full]
  465. Language: Mandarin (Hant)
  466. Default: No
  467. Forced: No
  468. Text 20
  469. ID: 28
  470. Format: UTF-8
  471. Codec ID: S_TEXT/UTF8
  472. Codec ID/Info: UTF-8 Plain Text
  473. Duration: 2 h 17 min
  474. Bit rate: 54 b/s
  475. Frame rate: 0.199 FPS
  476. Count of elements: 1644
  477. Stream size: 54.6 KiB (0%)
  478. Title: Czech [Full]
  479. Language: Czech
  480. Default: No
  481. Forced: No
  482. Text 21
  483. ID: 29
  484. Format: UTF-8
  485. Codec ID: S_TEXT/UTF8
  486. Codec ID/Info: UTF-8 Plain Text
  487. Duration: 2 h 17 min
  488. Bit rate: 49 b/s
  489. Frame rate: 0.168 FPS
  490. Count of elements: 1379
  491. Stream size: 50.2 KiB (0%)
  492. Title: Danish [Full]
  493. Language: Danish
  494. Default: No
  495. Forced: No
  496. Text 22
  497. ID: 30
  498. Format: UTF-8
  499. Codec ID: S_TEXT/UTF8
  500. Codec ID/Info: UTF-8 Plain Text
  501. Duration: 2 h 17 min
  502. Bit rate: 48 b/s
  503. Frame rate: 0.170 FPS
  504. Count of elements: 1396
  505. Stream size: 49.1 KiB (0%)
  506. Title: Dutch [Full]
  507. Language: Dutch
  508. Default: No
  509. Forced: No
  510. Text 23
  511. ID: 31
  512. Format: UTF-8
  513. Codec ID: S_TEXT/UTF8
  514. Codec ID/Info: UTF-8 Plain Text
  515. Duration: 2 h 17 min
  516. Bit rate: 53 b/s
  517. Frame rate: 0.210 FPS
  518. Count of elements: 1730
  519. Stream size: 54.0 KiB (0%)
  520. Title: Estonian [Full]
  521. Language: Estonian
  522. Default: No
  523. Forced: No
  524. Text 24
  525. ID: 32
  526. Format: UTF-8
  527. Codec ID: S_TEXT/UTF8
  528. Codec ID/Info: UTF-8 Plain Text
  529. Duration: 2 h 17 min
  530. Bit rate: 52 b/s
  531. Frame rate: 0.203 FPS
  532. Count of elements: 1673
  533. Stream size: 52.7 KiB (0%)
  534. Title: Finnish [Full]
  535. Language: Finnish
  536. Default: No
  537. Forced: No
  538. Text 25
  539. ID: 33
  540. Format: UTF-8
  541. Codec ID: S_TEXT/UTF8
  542. Codec ID/Info: UTF-8 Plain Text
  543. Duration: 2 h 17 min
  544. Bit rate: 49 b/s
  545. Frame rate: 0.228 FPS
  546. Count of elements: 1877
  547. Stream size: 49.7 KiB (0%)
  548. Title: French (Canada) [Full]
  549. Language: French (CA)
  550. Default: No
  551. Forced: No
  552. Text 26
  553. ID: 34
  554. Format: UTF-8
  555. Codec ID: S_TEXT/UTF8
  556. Codec ID/Info: UTF-8 Plain Text
  557. Duration: 2 h 17 min
  558. Bit rate: 91 b/s
  559. Frame rate: 0.181 FPS
  560. Count of elements: 1492
  561. Stream size: 92.7 KiB (0%)
  562. Title: Greek [Full]
  563. Language: Greek
  564. Default: No
  565. Forced: No
  566. Text 27
  567. ID: 35
  568. Format: UTF-8
  569. Codec ID: S_TEXT/UTF8
  570. Codec ID/Info: UTF-8 Plain Text
  571. Duration: 2 h 17 min
  572. Bit rate: 81 b/s
  573. Frame rate: 0.216 FPS
  574. Count of elements: 1776
  575. Stream size: 81.8 KiB (0%)
  576. Title: Hebrew [Full]
  577. Language: Hebrew
  578. Default: No
  579. Forced: No
  580. Text 28
  581. ID: 36
  582. Format: UTF-8
  583. Codec ID: S_TEXT/UTF8
  584. Codec ID/Info: UTF-8 Plain Text
  585. Duration: 2 h 17 min
  586. Bit rate: 155 b/s
  587. Frame rate: 0.215 FPS
  588. Count of elements: 1777
  589. Stream size: 157 KiB (0%)
  590. Title: Hindi [Full]
  591. Language: Hindi
  592. Default: No
  593. Forced: No
  594. Text 29
  595. ID: 37
  596. Format: UTF-8
  597. Codec ID: S_TEXT/UTF8
  598. Codec ID/Info: UTF-8 Plain Text
  599. Duration: 2 h 17 min
  600. Bit rate: 53 b/s
  601. Frame rate: 0.213 FPS
  602. Count of elements: 1756
  603. Stream size: 53.7 KiB (0%)
  604. Title: Hungarian [Full]
  605. Language: Hungarian
  606. Default: No
  607. Forced: No
  608. Text 30
  609. ID: 38
  610. Format: UTF-8
  611. Codec ID: S_TEXT/UTF8
  612. Codec ID/Info: UTF-8 Plain Text
  613. Duration: 2 h 17 min
  614. Bit rate: 53 b/s
  615. Frame rate: 0.214 FPS
  616. Count of elements: 1762
  617. Stream size: 53.9 KiB (0%)
  618. Title: Indonesian [Full]
  619. Language: Indonesian
  620. Default: No
  621. Forced: No
  622. Text 31
  623. ID: 39
  624. Format: UTF-8
  625. Codec ID: S_TEXT/UTF8
  626. Codec ID/Info: UTF-8 Plain Text
  627. Duration: 2 h 17 min
  628. Bit rate: 46 b/s
  629. Frame rate: 0.214 FPS
  630. Count of elements: 1772
  631. Stream size: 47.5 KiB (0%)
  632. Title: Japanese [Full]
  633. Language: Japanese
  634. Default: No
  635. Forced: No
  636. Text 32
  637. ID: 40
  638. Format: UTF-8
  639. Codec ID: S_TEXT/UTF8
  640. Codec ID/Info: UTF-8 Plain Text
  641. Duration: 2 h 17 min
  642. Bit rate: 53 b/s
  643. Frame rate: 0.213 FPS
  644. Count of elements: 1760
  645. Stream size: 53.5 KiB (0%)
  646. Title: Korean [Full]
  647. Language: Korean
  648. Default: No
  649. Forced: No
  650. Text 33
  651. ID: 41
  652. Format: UTF-8
  653. Codec ID: S_TEXT/UTF8
  654. Codec ID/Info: UTF-8 Plain Text
  655. Duration: 2 h 17 min
  656. Bit rate: 56 b/s
  657. Frame rate: 0.214 FPS
  658. Count of elements: 1760
  659. Stream size: 57.2 KiB (0%)
  660. Title: Latvian [Full]
  661. Language: Latvian
  662. Default: No
  663. Forced: No
  664. Text 34
  665. ID: 42
  666. Format: UTF-8
  667. Codec ID: S_TEXT/UTF8
  668. Codec ID/Info: UTF-8 Plain Text
  669. Duration: 2 h 17 min
  670. Bit rate: 53 b/s
  671. Frame rate: 0.215 FPS
  672. Count of elements: 1767
  673. Stream size: 53.8 KiB (0%)
  674. Title: Lithuanian [Full]
  675. Language: Lithuanian
  676. Default: No
  677. Forced: No
  678. Text 35
  679. ID: 43
  680. Format: UTF-8
  681. Codec ID: S_TEXT/UTF8
  682. Codec ID/Info: UTF-8 Plain Text
  683. Duration: 2 h 17 min
  684. Bit rate: 52 b/s
  685. Frame rate: 0.214 FPS
  686. Count of elements: 1760
  687. Stream size: 52.3 KiB (0%)
  688. Title: Malay [Full]
  689. Language: Malay
  690. Default: No
  691. Forced: No
  692. Text 36
  693. ID: 44
  694. Format: UTF-8
  695. Codec ID: S_TEXT/UTF8
  696. Codec ID/Info: UTF-8 Plain Text
  697. Duration: 2 h 17 min
  698. Bit rate: 51 b/s
  699. Frame rate: 0.187 FPS
  700. Count of elements: 1534
  701. Stream size: 51.7 KiB (0%)
  702. Title: Norwegian [Full]
  703. Language: Norwegian
  704. Default: No
  705. Forced: No
  706. Text 37
  707. ID: 45
  708. Format: UTF-8
  709. Codec ID: S_TEXT/UTF8
  710. Codec ID/Info: UTF-8 Plain Text
  711. Duration: 2 h 17 min
  712. Bit rate: 49 b/s
  713. Frame rate: 0.205 FPS
  714. Count of elements: 1683
  715. Stream size: 49.7 KiB (0%)
  716. Title: Polish [Full]
  717. Language: Polish
  718. Default: No
  719. Forced: No
  720. Text 38
  721. ID: 46
  722. Format: UTF-8
  723. Codec ID: S_TEXT/UTF8
  724. Codec ID/Info: UTF-8 Plain Text
  725. Duration: 2 h 17 min
  726. Bit rate: 54 b/s
  727. Frame rate: 0.212 FPS
  728. Count of elements: 1755
  729. Stream size: 54.7 KiB (0%)
  730. Title: Portuguese (Portugal) [Full]
  731. Language: Portuguese (PT)
  732. Default: No
  733. Forced: No
  734. Text 39
  735. ID: 47
  736. Format: UTF-8
  737. Codec ID: S_TEXT/UTF8
  738. Codec ID/Info: UTF-8 Plain Text
  739. Duration: 2 h 17 min
  740. Bit rate: 84 b/s
  741. Frame rate: 0.215 FPS
  742. Count of elements: 1775
  743. Stream size: 85.0 KiB (0%)
  744. Title: Russian [Full]
  745. Language: Russian
  746. Default: No
  747. Forced: No
  748. Text 40
  749. ID: 48
  750. Format: UTF-8
  751. Codec ID: S_TEXT/UTF8
  752. Codec ID/Info: UTF-8 Plain Text
  753. Duration: 2 h 17 min
  754. Bit rate: 51 b/s
  755. Frame rate: 0.212 FPS
  756. Count of elements: 1751
  757. Stream size: 51.7 KiB (0%)
  758. Title: Slovak [Full]
  759. Language: Slovak
  760. Default: No
  761. Forced: No
  762. Text 41
  763. ID: 49
  764. Format: UTF-8
  765. Codec ID: S_TEXT/UTF8
  766. Codec ID/Info: UTF-8 Plain Text
  767. Duration: 2 h 17 min
  768. Bit rate: 46 b/s
  769. Frame rate: 0.184 FPS
  770. Count of elements: 1513
  771. Stream size: 46.8 KiB (0%)
  772. Title: Slovenian [Full]
  773. Language: Slovenian
  774. Default: No
  775. Forced: No
  776. Text 42
  777. ID: 50
  778. Format: UTF-8
  779. Codec ID: S_TEXT/UTF8
  780. Codec ID/Info: UTF-8 Plain Text
  781. Duration: 2 h 17 min
  782. Bit rate: 53 b/s
  783. Frame rate: 0.214 FPS
  784. Count of elements: 1761
  785. Stream size: 53.7 KiB (0%)
  786. Title: Swedish [Full]
  787. Language: Swedish
  788. Default: No
  789. Forced: No
  790. Text 43
  791. ID: 51
  792. Format: UTF-8
  793. Codec ID: S_TEXT/UTF8
  794. Codec ID/Info: UTF-8 Plain Text
  795. Duration: 2 h 17 min
  796. Bit rate: 168 b/s
  797. Frame rate: 0.216 FPS
  798. Count of elements: 1775
  799. Stream size: 169 KiB (0%)
  800. Title: Tamil [Full]
  801. Language: Tamil
  802. Default: No
  803. Forced: No
  804. Text 44
  805. ID: 52
  806. Format: UTF-8
  807. Codec ID: S_TEXT/UTF8
  808. Codec ID/Info: UTF-8 Plain Text
  809. Duration: 2 h 17 min
  810. Bit rate: 168 b/s
  811. Frame rate: 0.216 FPS
  812. Count of elements: 1776
  813. Stream size: 169 KiB (0%)
  814. Title: Telugu [Full]
  815. Language: Telugu
  816. Default: No
  817. Forced: No
  818. Text 45
  819. ID: 53
  820. Format: UTF-8
  821. Codec ID: S_TEXT/UTF8
  822. Codec ID/Info: UTF-8 Plain Text
  823. Duration: 2 h 17 min
  824. Bit rate: 131 b/s
  825. Frame rate: 0.216 FPS
  826. Count of elements: 1774
  827. Stream size: 132 KiB (0%)
  828. Title: Thai [Full]
  829. Language: Thai
  830. Default: No
  831. Forced: No
  832. Text 46
  833. ID: 54
  834. Format: UTF-8
  835. Codec ID: S_TEXT/UTF8
  836. Codec ID/Info: UTF-8 Plain Text
  837. Duration: 2 h 17 min
  838. Bit rate: 52 b/s
  839. Frame rate: 0.214 FPS
  840. Count of elements: 1762
  841. Stream size: 52.7 KiB (0%)
  842. Title: Turkish [Full]
  843. Language: Turkish
  844. Default: No
  845. Forced: No
  846. Text 47
  847. ID: 55
  848. Format: UTF-8
  849. Codec ID: S_TEXT/UTF8
  850. Codec ID/Info: UTF-8 Plain Text
  851. Duration: 2 h 17 min
  852. Bit rate: 84 b/s
  853. Frame rate: 0.215 FPS
  854. Count of elements: 1776
  855. Stream size: 85.6 KiB (0%)
  856. Title: Ukrainian [Full]
  857. Language: Ukrainian
  858. Default: No
  859. Forced: No
  860. Text 48
  861. ID: 56
  862. Format: UTF-8
  863. Codec ID: S_TEXT/UTF8
  864. Codec ID/Info: UTF-8 Plain Text
  865. Duration: 2 h 17 min
  866. Bit rate: 69 b/s
  867. Frame rate: 0.214 FPS
  868. Count of elements: 1764
  869. Stream size: 70.1 KiB (0%)
  870. Title: Vietnamese [Full]
  871. Language: Vietnamese
  872. Default: No
  873. Forced: No
复制代码










回复

使用道具 举报

蓝光币
365
发表于 2024-3-30 08:38:51 | 显示全部楼层

既然你诚信诚意的推荐了,那我就勉为其难的看看吧!蓝光电影网不走平凡路。
回复

使用道具 举报

蓝光币
92
发表于 2024-3-30 10:41:04 | 显示全部楼层
楼主发贴辛苦了,谢谢楼主分享!我觉得蓝光电影网是注册对了!
回复

使用道具 举报

蓝光币
771
发表于 2024-4-1 22:03:45 | 显示全部楼层
楼主发贴辛苦了,谢谢楼主分享!我觉得蓝光电影网是注册对了!
回复

使用道具 举报

蓝光币
180
发表于 2024-4-2 11:49:48 | 显示全部楼层

这东西我收了!谢谢楼主!蓝光电影网真好!
回复

使用道具 举报

蓝光币
3
发表于 2024-4-4 16:40:40 | 显示全部楼层

楼主发贴辛苦了,谢谢楼主分享!我觉得蓝光电影网是注册对了!
回复

使用道具 举报

蓝光币
713
发表于 2024-4-6 22:56:44 | 显示全部楼层
楼主发贴辛苦了,谢谢楼主分享!我觉得蓝光电影网是注册对了
回复

使用道具 举报

懒得打字嘛,点击右侧快捷回复 【右侧内容,后台自定义】
您需要登录后才可以回帖 登录 | 立即加入

本版积分规则

Copyright © 2024 Comsenz Inc. Powered by 蓝光电影网

本站内容由用户自主分享和转载自互联网,转载目的在于传递更多信息,并不代表本网赞同其观点和对其真实性负责。

如有侵权、违反国家法律政策行为,请联系我们,我们会第一时间及时清除和处理!

举报反馈邮箱:4k1080.com@gmail.com

快速回复 返回顶部 返回列表