找回密码

蓝光电影网

查看: 15688|回复: 267

蓝色星球2/蓝色星球 第二季 Blue.Planet.II.2017.S01.2160p.BluRay.REMUX.HEVC.DTS-HD.MA.5.1-FGT 142.96GB

  [复制链接]

 成长值: 21925

发表于 2018-1-21 12:22:44 | 显示全部楼层 |阅读模式
230043x411dd4z34v4ihl1.jpg
◎译  名 蓝色星球2/蓝色星球 第二季
◎片  名 Blue Planet II
◎年  代 2017
◎产  地 英国
◎类  别 纪录片
◎语  言 英语
◎上映日期 2017-10-29(英国)/2017-10-30(中国大陆)
◎IMDb评分  9.7/10 from 3,968 users
◎IMDb链接  http://www.imdb.com/title/tt6769208/
◎豆瓣评分 9.9/10 from 15,063 users
◎豆瓣链接 https://movie.douban.com/subject/26979545/
◎集  数 7
◎片  长 60分钟
◎导  演 詹姆斯·霍尼伯内 James Honeyborne
◎主  演 戴维·阿滕伯勒 David Attenborough

◎简  介

  《蓝色星球II》将由大卫·爱登堡爵士主持。在长达4年的拍摄过程中, 制作团队共执行了125次的探险,水下拍摄时数长达到6000多个小时。与2001年首播的《藍色星球》相隔16年之后,制作团队透过新的科技技术突破以往限制,将许多过去未知的地带、惊人的生物及其令人瞠目结舌的举动呈现在观众眼前
  自从《蓝色星球》2001年开播以来,我们对大海之下生命的理解被彻底颠覆了。从北极熊出没的北冰洋到焕发着勃勃生机的蓝色珊瑚环礁,本系列纪录片同大家分享一些令人吃惊的新发现;邂逅在南冰洋深处神出鬼没的奇怪章鱼,观赏巨大的鲹鱼跳出水面,飞跃到半空中捕鱼;骑在虎鲸的背上,同它一起冲向鱼群。《蓝色星球2》带领我们体验让人敬畏称奇的新地方,见识魅力四射的新物种,了解非同寻常的新行为。

◎获奖情况

  第4届豆瓣电影年度榜单  (2017)
  评分最高的纪录剧集


  1. Video
  2. ID                                       : 1
  3. Format                                   : HEVC
  4. Format/Info                              : High Efficiency Video Coding
  5. Format profile                           : Main [email]10@L5.1[/email]@High
  6. Codec ID                                 : V_MPEGH/ISO/HEVC
  7. Duration                                 : 53 min 12 s
  8. Bit rate                                 : 66.0 Mb/s
  9. Width                                    : 3 840 pixels
  10. Height                                   : 2 160 pixels
  11. Display aspect ratio                     : 16:9
  12. Frame rate mode                          : Constant
  13. Frame rate                               : 23.976 (24000/1001) FPS
  14. Color space                              : YUV
  15. Chroma subsampling                       : 4:2:0 (Type 2)
  16. Bit depth                                : 10 bits
  17. Bits/(Pixel*Frame)                       : 0.332
  18. Stream size                              : 24.5GB (97%)
  19. Title                                    : Blue.Planet.II.S01E05.Green.Seas.2160p.BluRay.REMUX.HEVC.DTS-HD.MA.5.1-FGT
  20. Default                                  : Yes
  21. Forced                                   : No
  22. Color range                              : Limited
  23. Color primaries                          : BT.2020
  24. Transfer characteristics                 : PQ
  25. Matrix coefficients                      : BT.2020 non-constant
  26. Mastering display color primaries        : Display P3
  27. Mastering display luminance              : min: 0.0050 cd/m2, max: 1000 cd/m2
  28. Maximum Content Light Level              : 1000 cd/m2
  29. Maximum Frame-Average Light Level        : 120 cd/m2

  30. Audio
  31. ID                                       : 2
  32. Format                                   : DTS
  33. Format/Info                              : Digital Theater Systems
  34. Format profile                           : MA / Core
  35. Codec ID                                 : A_DTS
  36. Duration                                 : 53 min 12 s
  37. Bit rate mode                            : Variable / Constant
  38. Bit rate                                 : 2 279 kb/s / 1 509 kb/s
  39. Channel(s)                               : 6 channels
  40. Channel positions                        : Front: L C R, Side: L R, LFE
  41. Sampling rate                            : 48.0 kHz
  42. Frame rate                               : 93.750 FPS (512 SPF)
  43. Bit depth                                : 16 bits
  44. Compression mode                         : Lossless / Lossy
  45. Stream size                              : 868 MiB (3%)
  46. Title                                    : Blue.Planet.II.S01E05.Green.Seas.2160p.BluRay.REMUX.HEVC.DTS-HD.MA.5.1-FGT
  47. Language                                 : English
  48. Default                                  : Yes
  49. Forced                                   : No

  50. Text
  51. ID                                       : 3
  52. Format                                   : PGS
  53. Muxing mode                              : zlib
  54. Codec ID                                 : S_HDMV/PGS
  55. Codec ID/Info                            : Picture based subtitle format used on BDs/HD-DVDs
  56. Duration                                 : 52 min 38 s
  57. Bit rate                                 : 21.7 kb/s
  58. Count of elements                        : 758
  59. Stream size                              : 8.17 MiB (0%)
  60. Title                                    : English-PGS
  61. Language                                 : English
  62. Default                                  : Yes
  63. Forced                                   : No

  64. Menu
  65. 00:00:00.000                             : en:Chapter 1
  66. 00:10:17.408                             : en:Chapter 2
  67. 00:20:49.540                             : en:Chapter 3
  68. 00:30:38.336                             : en:Chapter 4
  69. 00:41:58.057                             : en:Chapter 5



复制代码
复制代码
230044niln61y16nyjnnaj.jpg 230046q6kflcy0cxlmrybz.jpg 230047lptzsfdk1889tcms.jpg 230048c97spbf1bf77e1vk.jpg 230049j978hz4j8u8d7ebh.jpg 230050rdglcli484wl00ww.jpg



开通VIP免费下载本站所有资源---点这里
新手必看:资源下载、资源播放、字幕使用、等常见问题---点这里
回复

使用道具 举报

发表于 2018-1-21 12:51:12 | 显示全部楼层
感谢楼主收藏了
开通VIP免费下载本站所有资源---点这里
新手必看:资源下载、资源播放、字幕使用、等常见问题---点这里
回复 支持 反对

使用道具 举报

发表于 2018-1-21 16:37:51 | 显示全部楼层
蓝光币来来来
开通VIP免费下载本站所有资源---点这里
新手必看:资源下载、资源播放、字幕使用、等常见问题---点这里
回复 支持 反对

使用道具 举报

发表于 2018-1-21 16:47:11 | 显示全部楼层
感谢楼主收藏了
开通VIP免费下载本站所有资源---点这里
新手必看:资源下载、资源播放、字幕使用、等常见问题---点这里
回复 支持 反对

使用道具 举报

发表于 2018-1-21 17:28:14 | 显示全部楼层

蓝光币来来来
开通VIP免费下载本站所有资源---点这里
新手必看:资源下载、资源播放、字幕使用、等常见问题---点这里
回复 支持 反对

使用道具 举报

发表于 2018-1-21 17:44:38 | 显示全部楼层
蓝光币来来来
开通VIP免费下载本站所有资源---点这里
新手必看:资源下载、资源播放、字幕使用、等常见问题---点这里
回复 支持 反对

使用道具 举报

发表于 2018-1-21 17:59:41 | 显示全部楼层
最喜欢BBC和discovery
开通VIP免费下载本站所有资源---点这里
新手必看:资源下载、资源播放、字幕使用、等常见问题---点这里
回复 支持 反对

使用道具 举报

发表于 2018-1-21 18:31:03 | 显示全部楼层
以前的蓝光币没有了
开通VIP免费下载本站所有资源---点这里
新手必看:资源下载、资源播放、字幕使用、等常见问题---点这里
回复 支持 反对

使用道具 举报

发表于 2018-1-21 18:52:12 | 显示全部楼层
回帖有蓝光币吗
开通VIP免费下载本站所有资源---点这里
新手必看:资源下载、资源播放、字幕使用、等常见问题---点这里
回复 支持 反对

使用道具 举报

发表于 2018-1-21 19:22:34 | 显示全部楼层
限定后看,定了再看
开通VIP免费下载本站所有资源---点这里
新手必看:资源下载、资源播放、字幕使用、等常见问题---点这里
回复 支持 反对

使用道具 举报

懒得打字嘛,点击右侧快捷回复 【右侧内容,后台自定义】
您需要登录后才可以回帖 登录 | 立即加入

本版积分规则

现在加入蓝光电影网,注册一个账号

QQ| 手机版|小黑屋| 蓝光电影网 |网站地图

Copyright © 2015-2019 Comsenz Inc.  Template by 蓝光电影网 All Rights Reserved.

Powered by 蓝光电影网 X3.4

特别声明:本站所有资源均由网上收集而来,版权归原影音公司所有,如果侵犯了你的权益,请通知我们,我们会及时删除侵权内容.

快速回复 返回顶部 返回列表