找回密码

查看: 3379|回复: 61

[科幻] 沙丘2/沙丘:第二部(台)/沙丘瀚战:第二章(港)/沙丘II/Dune 2 [外挂中字].Dune.Part.Two.2024.1080p.WEB-DL.H264.AAC-TAG 6.59GB

[复制链接]
蓝光币
1971
发表于 2024-4-8 00:18:08 | 显示全部楼层 |阅读模式
沙丘2/沙丘:第二部(台)/沙丘瀚战:第二章(港)/沙丘II/Dune 2 [外挂中字].Dune.Part.Two.2024.1080p.WEB-DL.H264.AAC-TAG 6.59GB-1.jpg
◎译  名  沙丘2 / 沙丘:第二部(台) / 沙丘瀚战:第二章(港) / 沙丘II / Dune 2
◎片  名 Dune: Part Two
◎年  代 2024
◎产  地 美国 / 加拿大
◎类  别 剧情 / 行动 / 科幻 / 冒险
◎语  言 英语
◎上映日期 2024-03-08(中国大陆) / 2024-03-01(美国) / 2024-02-28(法国)
◎IMDb评分  8.8/10 from 303426 users
◎IMDb链接  https://www.imdb.com/title/tt15239678/
◎豆瓣评分 8.2/10 from 363780 users
◎豆瓣链接 https://movie.douban.com/subject/35575567/
◎导  演  丹尼斯·维伦纽瓦 Denis Villeneuve
◎编  剧  丹尼斯·维伦纽瓦 Denis Villeneuve / 乔·斯派茨 Jon Spaihts / 弗兰克·赫伯特 Frank Herbert
◎主  演  提莫西·查拉梅 Timothée Chalamet
          赞达亚 Zendaya
          丽贝卡·弗格森 Rebecca Ferguson
          哈维尔·巴登 Javier Bardem
          乔什·布洛林 Josh Brolin
          奥斯汀·巴特勒 Austin Butler
          弗洛伦丝·皮尤 Florence Pugh
          戴夫·巴蒂斯塔 Dave Bautista
          克里斯托弗·沃肯 Christopher Walken
          蕾雅·赛杜 Léa Seydoux
          斯特兰·斯卡斯加德 Stellan Skarsgård
          夏洛特·兰普林 Charlotte Rampling
          安雅·泰勒-乔伊 Anya Taylor-Joy
          索海拉·雅各布 Souheila Yacoub
          巴布斯·奥卢桑莫昆 Babs Olusanmokun
          袁之正 Roger Yuan
          艾莉森·霍尔斯特德 Alison Halstead
          朱西·梅里 Giusi Merli
          凯特·泰森 Kait Tenison
          塔拉·布雷思纳克 Tara Breathnach
           Akiko Hitomi
          安东·桑德斯 Anton Saunders
          特雷茜库根 Tracy Coogan
          阿伦·梅迪扎德 Alan Mehdizadeh
          伊莫拉·加斯帕尔 Imola Gáspár
          小彼得·斯托亚诺夫 Peter Sztojanov Jr.
          莫利·麦考恩 Molly Mcowan

◎简  介  

 《沙丘2》承接第一部剧情,报告保罗·厄崔迪(提莫西·查拉梅 Timothée Chalamet 饰)被帕迪沙天子和哈克南人联手灭族后,在厄拉科斯星球碰到弗雷曼女战士契妮(赞达亚 Zendaya 饰)以及加入弗雷曼人后展开的传奇旅程。保罗与让他流浪失所的诡计家们开战,同时面临着平生所爱与已知宇宙命运的两难挑选。

  1. General
  2. Unique ID : 321128211036466406475268231836858744271 (0xF1970B3400F2396C6E28ABD853B67DCF)
  3. Complete name : Dune.Part.Two.2024.1080p.WEB-DL.H264.AAC-TAG.mkv
  4. Format : Matroska
  5. Format version : Version 4
  6. File size : 6.59 GiB
  7. Duration : 2 h 45 min
  8. Overall bit rate : 5 690 kb/s
  9. Frame rate : 23.976 FPS
  10. Encoded date : 2024-04-05 17:38:58 UTC
  11. Writing application : mkvmerge v57.0.0 ('Till The End') 64-bit
  12. Writing library : libebml v1.4.2 + libmatroska v1.6.4

  13. Video
  14. ID : 1
  15. Format : AVC
  16. Format/Info : Advanced Video Codec
  17. Format profile : Main@L4
  18. Format settings : CABAC / 2 Ref Frames
  19. Format settings, CABAC : Yes
  20. Format settings, Reference frames : 2 frames
  21. Codec ID : V_MPEG4/ISO/AVC
  22. Duration : 2 h 45 min
  23. Bit rate mode : Constant
  24. Bit rate : 5 560 kb/s
  25. Nominal bit rate : 9 060 kb/s
  26. Width : 1 920 pixels
  27. Height : 1 080 pixels
  28. Display aspect ratio : 16:9
  29. Frame rate mode : Constant
  30. Frame rate : 23.976 (24000/1001) FPS
  31. Color space : YUV
  32. Chroma subsampling : 4:2:0
  33. Bit depth : 8 bits
  34. Scan type : Progressive
  35. Bits/(Pixel*Frame) : 0.112
  36. Stream size : 6.44 GiB (98%)
  37. Language : English
  38. Default : Yes
  39. Forced : No
  40. Color range : Limited
  41. Color primaries : BT.709
  42. Transfer characteristics : BT.709
  43. Matrix coefficients : BT.709

  44. Audio
  45. ID : 2
  46. Format : AAC LC
  47. Format/Info : Advanced Audio Codec Low Complexity
  48. Codec ID : A_AAC-2
  49. Duration : 2 h 45 min
  50. Bit rate : 128 kb/s
  51. Channel(s) : 2 channels
  52. Channel layout : L R
  53. Sampling rate : 48.0 kHz
  54. Frame rate : 46.875 FPS (1024 SPF)
  55. Compression mode : Lossy
  56. Stream size : 152 MiB (2%)
  57. Language : English
  58. Default : Yes
  59. Forced : No
复制代码
沙丘2/沙丘:第二部(台)/沙丘瀚战:第二章(港)/沙丘II/Dune 2 [外挂中字].Dune.Part.Two.2024.1080p.WEB-DL.H264.AAC-TAG 6.59GB-2.jpg
沙丘2/沙丘:第二部(台)/沙丘瀚战:第二章(港)/沙丘II/Dune 2 [外挂中字].Dune.Part.Two.2024.1080p.WEB-DL.H264.AAC-TAG 6.59GB-3.jpg
沙丘2/沙丘:第二部(台)/沙丘瀚战:第二章(港)/沙丘II/Dune 2 [外挂中字].Dune.Part.Two.2024.1080p.WEB-DL.H264.AAC-TAG 6.59GB-4.jpg
沙丘2/沙丘:第二部(台)/沙丘瀚战:第二章(港)/沙丘II/Dune 2 [外挂中字].Dune.Part.Two.2024.1080p.WEB-DL.H264.AAC-TAG 6.59GB-5.jpg











回复

使用道具 举报

蓝光币
3
发表于 2024-4-8 01:04:29 | 显示全部楼层

既然你诚信诚意的推荐了,那我就勉为其难的看看吧!蓝光电影网不走平凡路。
回复

使用道具 举报

蓝光币
157
发表于 2024-4-8 08:19:21 | 显示全部楼层
楼主发贴辛苦了,谢谢楼主分享!我觉得蓝光电影网是注册对了!
回复

使用道具 举报

蓝光币
1564
发表于 2024-4-8 09:03:11 | 显示全部楼层
楼主发贴辛苦了,谢谢楼主分享!我觉得蓝光电影网是注册对了!
回复

使用道具 举报

蓝光币
1004
发表于 2024-4-8 10:12:23 | 显示全部楼层
楼主发贴辛苦了,谢谢楼主分享!我觉得蓝光电影网是注册对了!
回复

使用道具 举报

蓝光币
60
发表于 2024-4-8 11:36:41 | 显示全部楼层

楼主发贴辛苦了!
回复

使用道具 举报

蓝光币
32
发表于 2024-4-8 12:30:20 | 显示全部楼层
第一部还没看
回复

使用道具 举报

蓝光币
12
发表于 2024-4-8 12:38:07 | 显示全部楼层

这东西我收了!谢谢楼主!蓝光电影网真好!
回复

使用道具 举报

蓝光币
264
发表于 2024-4-8 14:47:01 | 显示全部楼层
谢谢楼主
回复

使用道具 举报

蓝光币
56
发表于 2024-4-8 14:54:48 | 显示全部楼层
这东西我收了!谢谢楼主!蓝光电影网真好!
回复

使用道具 举报

懒得打字嘛,点击右侧快捷回复 【右侧内容,后台自定义】
您需要登录后才可以回帖 登录 | 立即加入

本版积分规则

Archiver| |网站地图

Copyright © 2024 Comsenz Inc. Powered by 蓝光电影网

本站内容由用户自主分享和转载自互联网,转载目的在于传递更多信息,并不代表本网赞同其观点和对其真实性负责。

如有侵权、违反国家法律政策行为,请联系我们,我们会第一时间及时清除和处理!

举报反馈邮箱:4k1080.com@gmail.com

快速回复 返回顶部 返回列表