找回密码

查看: 360|回复: 3

[UHD.HEVC] 速度与激情9/玩命关头9(台)/F9狂野时速(港) [导演剪辑加长+剧场二合一版 DIY国配+国配简繁中字].The.Fast.Saga.2021.2in1.UHD.Blu-ray.2160p.HEVC.TrueHD.Atmos.7.1-TAG 85.64GB

[复制链接]
蓝光币
1982
发表于 2024-6-8 23:59:59 | 显示全部楼层 |阅读模式
速度与豪情9/玩命关头9(台)/F9狂野时速(港) [导演剪辑加长+戏院二合一版 DIY国配+国配简繁中字].The.Fast.Saga.2021.2in1.UHD.Blu-ray.2160p.HEVC.TrueHD.Atmos.7.1-TAG 85.64GB-1.jpg

◎译  名 速度与豪情9/狂野时速9/速激9/玩命关头9(台)/F9狂野时速(港)/Fast & Furious 9/FF9
◎片  名 F9: The Fast Saga
◎年  代 2021
◎产  地 美国 / 泰国 / 加拿大
◎类  别 行动 / 犯罪
◎语  言 英语
◎上映日期 2021-05-19(韩国) / 2021-05-21(中国大陆) / 2021-06-25(美国)
◎IMDb评分  5.2/10 from 100971 users
◎IMDb链接  https://www.imdb.com/title/tt5433138/
◎豆瓣评分 5.2/10 from 166199 users
◎豆瓣链接 https://movie.douban.com/subject/25728006/
◎片  长 142分钟(中国大陆)
◎导  演 林诣彬 Justin Lin
◎编  剧 丹·凯西 Daniel Casey / 盖瑞·斯科特·汤普森 Gary Scott Thompson / 克里斯·摩根 Chris Morgan
◎主  演 范·迪塞尔 Vin Diesel
       约翰·塞纳 John Cena
       米歇尔·罗德里格兹 Michelle Rodriguez
       乔丹娜·布鲁斯特 Jordana Brewster
       泰瑞斯·吉布森 Tyrese Gibson
       卢达·克里斯 Ludacris
       查理兹·塞隆 Charlize Theron
       海伦·米伦 Helen Mirren
       姜成镐 Sung Kang
       娜塔莉·伊曼纽尔 Nathalie Emmanuel
       迈克尔·鲁克 Michael Rooker
       卢卡斯·布莱克 Lucas Black
       杜俊纬 Jason Tobin
       卡迪·B Cardi B
       吉姆·帕拉克 Jim Parrack
       芬恩·科尔 Finn Cole
       安珀·西耶娜 Amber Sienna
       马丁·福特 Martyn Ford
       艾拉·沃克 Ella Walker
       泽井杏奈 Anna Sawai
       图厄·埃尔斯特德·拉斯姆森 Thue Ersted Rasmussen
       米拉吉·格尔比克 Miraj Grbic
       吉米·斯达 Jimmy Star
       莱克斯·艾尔 Lex Elle
       温尼·贝内特 Vinnie Bennett
       马克·克雷尼克 Mark Krenik
       杰森·斯坦森 Jason Statham
       库尔特·拉塞尔 Kurt Russell
       谢伊·惠格姆 Shea Whigham
       弗朗西斯·纳干诺 Francis Ngannou

◎标  签 行动 | 美国 | 飙车 | 犯罪 | 2021 | 赛车 | 跑车 | 科幻

◎简  介

  “唐老迈”多姆·托莱多(范·迪塞尔 饰)与莱蒂(米歇尔·罗德里格兹 饰)和他的儿子小布莱恩,过上了阔别纷扰的安静生活。但是他们也晓得,安宁之下总潜藏着危机。这一次,为了庇护他所爱的人,唐老迈不能不直面曩昔。他和伙伴们面临的是一场足以引发天下动乱的诡计,以及一个前所未遇的一流杀手和高能车手。而这个名叫雅各布(约翰·塞纳 饰)的人,恰巧是多姆遗落在外的亲弟弟。

◎获奖情况

  第7届豆瓣电影年度榜单  (2020)
  最值得期待的外语电影(提名)
  
  第6届豆瓣电影年度榜单  (2019)
  最值得期待的外语电影(提名)

  1. DISC INFO:

  2. Disc Title: FAST AND FURIOUS 9
  3. Disc Label: FAST AND FURIOUS 9 UHD Blu-ray
  4. Disc Size: 91,951,019,180 bytes
  5. Protection: AACS2
  6. Extras: Ultra HD, BD-Java
  7. BDInfo: 0.7.5.8

  8. PLAYLIST REPORT:

  9. Name: 00801.MPLS
  10. Length: 2:29:55.486 (h:m:s.ms)
  11. Size: 63,613,572,096 bytes
  12. Total Bitrate: 56.57 Mbps

  13. (*) Indicates included stream hidden by this playlist.

  14. VIDEO:

  15. Codec Bitrate Description
  16. ----- ------- -----------
  17. MPEG-H HEVC Video 41896 kbps 2160p / 23.976 fps / 16:9 / Main 10 @ Level 5.1 @ High / 10 bits / HDR10+ / BT.2020
  18. * MPEG-H HEVC Video 4726 kbps 1080p / 23.976 fps / 16:9 / Main 10 @ Level 5.1 @ High / 10 bits / Dolby Vision / BT.2020

  19. AUDIO:

  20. Codec Language Bitrate Description
  21. ----- -------- ------- -----------
  22. Dolby TrueHD/Atmos Audio English 3542 kbps 7.1 / 48 kHz / 3094 kbps / 16-bit (AC3 Embedded: 5.1 / 48 kHz / 448 kbps / DN -27dB)
  23. DTS-HD Master Audio Chinese 2635 kbps 7.1 / 48 kHz / 2635 kbps / 16-bit (DTS Core: 5.1 / 48 kHz / 1509 kbps / 16-bit)

  24. SUBTITLES:

  25. Codec Language Bitrate Description
  26. ----- -------- ------- -----------
  27. Presentation Graphics English 34.698 kbps
  28. Presentation Graphics Chinese 12.514 kbps
  29. Presentation Graphics Chinese 13.168 kbps


  30. FILES:

  31. Name Time In Length Size Total Bitrate
  32. ---- ------- ------ ---- -------------
  33. 00007.M2TS 0:00:00.000 0:10:27.001 4,636,744,896 59,153
  34. 00080.M2TS 0:10:27.001 0:01:53.154 759,907,392 53,686
  35. 00059.M2TS 0:12:20.156 0:14:17.898 6,524,888,064 60,839
  36. 00081.M2TS 0:26:38.054 0:00:18.476 122,474,688 52,790
  37. 00061.M2TS 0:26:56.531 0:08:45.983 3,544,449,408 53,901
  38. 00082.M2TS 0:35:42.515 0:02:07.919 859,953,984 53,746
  39. 00063.M2TS 0:37:50.434 0:02:39.659 1,063,726,272 53,272
  40. 00083.M2TS 0:40:30.094 0:02:37.949 1,065,340,224 53,930
  41. 00065.M2TS 0:43:08.043 0:02:17.595 915,311,040 53,185
  42. 00084.M2TS 0:45:25.639 0:05:55.646 2,474,712,768 55,654
  43. 00067.M2TS 0:51:21.286 0:02:04.249 821,236,608 52,841
  44. 00327.M2TS 0:53:25.535 0:05:42.383 2,326,819,008 54,354
  45. 00069.M2TS 0:59:07.919 0:01:44.896 692,995,968 52,810
  46. 00086.M2TS 1:00:52.815 0:01:45.855 715,086,912 54,000
  47. 00071.M2TS 1:02:38.671 0:02:38.449 1,105,778,880 55,800
  48. 00087.M2TS 1:05:17.121 0:03:29.417 1,416,269,184 54,082
  49. 00073.M2TS 1:08:46.538 0:20:31.230 8,486,770,368 55,140
  50. 00088.M2TS 1:29:17.768 0:01:11.196 475,798,656 53,401
  51. 00075.M2TS 1:30:28.964 0:22:27.054 10,026,184,320 59,541
  52. 00089.M2TS 1:52:56.019 0:00:27.277 184,742,208 54,017
  53. 00077.M2TS 1:53:23.296 0:14:03.509 6,375,980,352 60,465
  54. 00090.M2TS 2:07:26.805 0:01:02.979 439,923,264 55,807
  55. 00079.M2TS 2:08:29.785 0:21:25.701 8,578,477,632 53,374
复制代码
  1. DISC INFO:

  2. Disc Title: FAST AND FURIOUS 9
  3. Disc Label: FAST AND FURIOUS 9 UHD Blu-ray
  4. Disc Size: 91,951,019,180 bytes
  5. Protection: AACS2
  6. Extras: Ultra HD, BD-Java
  7. BDInfo: 0.7.5.8

  8. PLAYLIST REPORT:

  9. Name: 00800.MPLS
  10. Length: 2:22:52.271 (h:m:s.ms)
  11. Size: 60,736,672,896 bytes
  12. Total Bitrate: 56.68 Mbps

  13. (*) Indicates included stream hidden by this playlist.

  14. VIDEO:

  15. Codec Bitrate Description
  16. ----- ------- -----------
  17. MPEG-H HEVC Video 41968 kbps 2160p / 23.976 fps / 16:9 / Main 10 @ Level 5.1 @ High / 10 bits / HDR10+ / BT.2020
  18. * MPEG-H HEVC Video 4732 kbps 1080p / 23.976 fps / 16:9 / Main 10 @ Level 5.1 @ High / 10 bits / Dolby Vision / BT.2020

  19. AUDIO:

  20. Codec Language Bitrate Description
  21. ----- -------- ------- -----------
  22. Dolby TrueHD/Atmos Audio English 3549 kbps 7.1 / 48 kHz / 3101 kbps / 16-bit (AC3 Embedded: 5.1 / 48 kHz / 448 kbps / DN -27dB)
  23. DTS-HD Master Audio Chinese 2652 kbps 7.1 / 48 kHz / 2652 kbps / 16-bit (DTS Core: 5.1 / 48 kHz / 1509 kbps / 16-bit)

  24. SUBTITLES:

  25. Codec Language Bitrate Description
  26. ----- -------- ------- -----------
  27. Presentation Graphics English 34.101 kbps
  28. Presentation Graphics Chinese 12.107 kbps
  29. Presentation Graphics Chinese 12.730 kbps

  30. FILES:

  31. Name Time In Length Size Total Bitrate
  32. ---- ------- ------ ---- -------------
  33. 00007.M2TS 0:00:00.000 0:10:27.001 4,636,744,896 59,153
  34. 00058.M2TS 0:10:27.001 0:00:36.453 244,119,936 53,452
  35. 00059.M2TS 0:11:03.454 0:14:17.898 6,524,888,064 60,839
  36. 00060.M2TS 0:25:21.353 0:00:18.476 122,726,016 52,899
  37. 00061.M2TS 0:25:39.829 0:08:45.983 3,544,449,408 53,901
  38. 00062.M2TS 0:34:25.813 0:01:23.041 558,344,640 53,736
  39. 00063.M2TS 0:35:48.854 0:02:39.659 1,063,726,272 53,272
  40. 00064.M2TS 0:38:28.514 0:01:19.245 532,538,496 53,704
  41. 00065.M2TS 0:39:47.760 0:02:17.595 915,311,040 53,185
  42. 00066.M2TS 0:42:05.356 0:05:12.937 2,168,921,856 55,432
  43. 00067.M2TS 0:47:18.293 0:02:04.249 821,236,608 52,841
  44. 00326.M2TS 0:49:22.542 0:00:48.590 324,919,296 53,404
  45. 00069.M2TS 0:50:11.132 0:01:44.896 692,995,968 52,810
  46. 00070.M2TS 0:51:56.029 0:05:16.316 2,151,199,680 54,392
  47. 00071.M2TS 0:57:12.345 0:02:38.449 1,105,778,880 55,800
  48. 00072.M2TS 0:59:50.795 0:02:59.137 1,210,219,584 54,021
  49. 00073.M2TS 1:02:49.932 0:20:31.230 8,486,770,368 55,140
  50. 00074.M2TS 1:23:21.162 0:00:27.110 181,681,920 53,448
  51. 00075.M2TS 1:23:48.273 0:22:27.054 10,026,184,320 59,541
  52. 00076.M2TS 1:46:15.327 0:00:22.355 152,105,664 54,229
  53. 00077.M2TS 1:46:37.682 0:14:03.509 6,375,980,352 60,465
  54. 00078.M2TS 2:00:41.192 0:00:45.378 317,352,000 55,845
  55. 00079.M2TS 2:01:26.570 0:21:25.701 8,578,477,632 53,374
复制代码







新种保举请利用qBittorrent,utorrent,transmission等标准BT软件下载!以获得最快速度。请大师下载完成后不要封闭下载软件 进献出自己的上传带宽 人报酬我 我为大家!







回复

使用道具 举报

蓝光币
42
发表于 2024-6-10 16:52:57 | 显示全部楼层
谢谢分享
回复

使用道具 举报

蓝光币
505
发表于 2024-6-11 09:04:23 | 显示全部楼层

既然你诚信诚意的推荐了,那我就勉为其难的看看吧!蓝光电影网不走平凡路。
回复

使用道具 举报

蓝光币
3
发表于 4 天前 | 显示全部楼层

楼主太厉害了!楼主,电影应该很好看我觉得蓝光电影网真是个好地方!
回复

使用道具 举报

懒得打字嘛,点击右侧快捷回复 【右侧内容,后台自定义】
您需要登录后才可以回帖 登录 | 立即加入

本版积分规则

Archiver| |网站地图

Copyright © 2024 Comsenz Inc. Powered by 蓝光电影网

本站内容由用户自主分享和转载自互联网,转载目的在于传递更多信息,并不代表本网赞同其观点和对其真实性负责。

如有侵权、违反国家法律政策行为,请联系我们,我们会第一时间及时清除和处理!

举报反馈邮箱:4k1080.com@gmail.com

快速回复 返回顶部 返回列表