找回密码

查看: 205|回复: 1

[2160p-WEB] 斯瓦坦特里亚·维尔·萨瓦尔卡.Swatantrya.Veer.Savarkar.2024.2160p.ZEE5.WEB-DL.DUAL.DDP5.1.Atmos.H.265-Archie 3.47GB

[复制链接]
蓝光币
8
发表于 2024-5-31 17:41:58 | 显示全部楼层 |阅读模式



译  名 斯瓦坦特里亚·维尔·萨瓦尔卡 / Swatantrya Veer Savarkar
片  名 Swatantra Veer Savarkar
年  代 2024
产  地 印度
类  别 剧情 / 列传 / 历史
语  言 印地语
上映日期 2024-03-22(印度/美国)
IMDb评星  ★★★★★★★✦☆☆
IMDb评分  7.7/10 from 14,093 users
IMDb链接  https://www.imdb.com/title/tt14753612/
豆瓣链接 https://movie.douban.com/subject/36423226/
片  长 178分钟
导  演 马赫什·曼杰瑞卡 / Mahesh Manjrekar
演  员 兰迪普·弘达 / Randeep Hooda
      马克·班宁顿 / Mark Bennington
      阿米特·西亚尔 / Amit Sial
      R·巴克提·克莱因 / Richard Bhakti Klein
      拉塞尔·班克斯 / Russell Banks
编  剧 里希·维尔马尼 / Rishi Virmani

简  介 

  印度自在战士和鼎新者 Vinayak Damodar Savarkar(俗称 Veer Savarkar)的人生旅程。
  1. General
  2. Unique ID                                : 101054688000845560663284714515731059917 (0x4C066CCA736686CA779195C9E38814CD)
  3. Complete name                            : Swatantrya.Veer.Savarkar.2024.2160p.ZEE5.WEB-DL.DUAL.DDP5.1.Atmos.H.265-Archie.mkv
  4. Format                                   : Matroska
  5. Format version                           : Version 4
  6. File size                                : 3.47 GiB
  7. Duration                                 : 2 h 50 min
  8. Overall bit rate                         : 2 922 kb/s
  9. Frame rate                               : 25.000 FPS
  10. Movie name                               : ARCHIE
  11. Encoded date                             : 2024-05-27 18:03:21 UTC
  12. Writing application                      : mkvmerge v74.0.0 ('You Oughta Know') 64-bit
  13. Writing library                          : libebml v1.4.4 + libmatroska v1.7.1

  14. Video
  15. ID                                       : 1
  16. Format                                   : HEVC
  17. Format/Info                              : High Efficiency Video Coding
  18. Format profile                           : Main 10@L5.1@Main
  19. Codec ID                                 : V_MPEGH/ISO/HEVC
  20. Duration                                 : 2 h 50 min
  21. Bit rate                                 : 2 280 kb/s
  22. Width                                    : 3 840 pixels
  23. Height                                   : 2 160 pixels
  24. Display aspect ratio                     : 16:9
  25. Frame rate mode                          : Constant
  26. Frame rate                               : 25.000 FPS
  27. Color space                              : YUV
  28. Chroma subsampling                       : 4:2:0
  29. Bit depth                                : 10 bits
  30. Bits/(Pixel*Frame)                       : 0.011
  31. Time code of first frame                 : 00:00:00:00
  32. Stream size                              : 2.71 GiB (78%)
  33. Default                                  : Yes
  34. Forced                                   : No
  35. Color range                              : Full
  36. Color primaries                          : BT.709
  37. Transfer characteristics                 : BT.709
  38. Matrix coefficients                      : BT.709

  39. Audio #1
  40. ID                                       : 2
  41. Format                                   : E-AC-3 JOC
  42. Format/Info                              : Enhanced AC-3 with Joint Object Coding
  43. Commercial name                          : Dolby Digital Plus with Dolby Atmos
  44. Codec ID                                 : A_EAC3
  45. Duration                                 : 2 h 50 min
  46. Bit rate mode                            : Constant
  47. Bit rate                                 : 448 kb/s
  48. Channel(s)                               : 6 channels
  49. Channel layout                           : L R C LFE Ls Rs
  50. Sampling rate                            : 48.0 kHz
  51. Frame rate                               : 31.250 FPS (1536 SPF)
  52. Compression mode                         : Lossy
  53. Stream size                              : 545 MiB (15%)
  54. Language                                 : Hindi
  55. Service kind                             : Complete Main
  56. Default                                  : Yes
  57. Forced                                   : No
  58. Complexity index                         : 16
  59. Number of dynamic objects                : 15
  60. Bed channel count                        : 1 channel
  61. Bed channel configuration                : LFE
  62. Dialog Normalization                     : -25 dB
  63. compr                                    : -0.28 dB
  64. dialnorm_Average                         : -25 dB
  65. dialnorm_Minimum                         : -25 dB
  66. dialnorm_Maximum                         : -25 dB

  67. Audio #2
  68. ID                                       : 3
  69. Format                                   : E-AC-3
  70. Format/Info                              : Enhanced AC-3
  71. Commercial name                          : Dolby Digital Plus
  72. Codec ID                                 : A_EAC3
  73. Duration                                 : 2 h 50 min
  74. Bit rate mode                            : Constant
  75. Bit rate                                 : 192 kb/s
  76. Channel(s)                               : 6 channels
  77. Channel layout                           : L R C LFE Ls Rs
  78. Sampling rate                            : 48.0 kHz
  79. Frame rate                               : 31.250 FPS (1536 SPF)
  80. Compression mode                         : Lossy
  81. Stream size                              : 234 MiB (7%)
  82. Language                                 : Marathi
  83. Service kind                             : Complete Main
  84. Default                                  : Yes
  85. Forced                                   : No
  86. Dialog Normalization                     : -24 dB
  87. compr                                    : -0.28 dB
  88. dialnorm_Average                         : -24 dB
  89. dialnorm_Minimum                         : -24 dB
  90. dialnorm_Maximum                         : -24 dB

  91. Text
  92. ID                                       : 4
  93. Format                                   : UTF-8
  94. Codec ID                                 : S_TEXT/UTF8
  95. Codec ID/Info                            : UTF-8 Plain Text
  96. Duration                                 : 2 h 43 min
  97. Bit rate                                 : 51 b/s
  98. Frame rate                               : 0.201 FPS
  99. Count of elements                        : 1976
  100. Stream size                              : 61.7 KiB (0%)
  101. Title                                    : English
  102. Language                                 : English
  103. Default                                  : Yes
  104. Forced                                   : No
复制代码













回复

使用道具 举报

蓝光币
145
发表于 2024-6-5 10:40:32 | 显示全部楼层

感谢楼主的无私分享!
回复

使用道具 举报

懒得打字嘛,点击右侧快捷回复 【右侧内容,后台自定义】
您需要登录后才可以回帖 登录 | 立即加入

本版积分规则

Archiver| |网站地图

Copyright © 2024 Comsenz Inc. Powered by 蓝光电影网

本站内容由用户自主分享和转载自互联网,转载目的在于传递更多信息,并不代表本网赞同其观点和对其真实性负责。

如有侵权、违反国家法律政策行为,请联系我们,我们会第一时间及时清除和处理!

举报反馈邮箱:4k1080.com@gmail.com

快速回复 返回顶部 返回列表