找回密码

查看: 205|回复: 1

[动作] 新碧血剑 [国语 中英文字幕].The.Sword.Stained.with.Royal.Blood.1993.HDTV.1080i.H.264.MPEG.Audio.2.0-TAG 6.13GB

[复制链接]
蓝光币
1982
发表于 2024-5-22 19:01:02 | 显示全部楼层 |阅读模式
新碧血剑 [国语 中英笔墨幕].The.Sword.Stained.with.Royal.Blood.1993.HDTV.1080i.H.264.MPEG.Audio.2.0-TAG 6.13GB-1.jpg
◎译  名 新碧血剑 / The Sword Stained with Royal Blood
◎片  名 新碧血劍
◎年  代 1993
◎产  地 中国香港
◎类  别 行动 / 武侠 / 古装
◎语  言 粤语
◎上映日期 1993-11-25(中国香港)
◎IMDb评星  ★★★★★★✦☆☆☆
◎IMDb评分  6.3/10 from 176 users
◎IMDb链接  https://www.imdb.com/title/tt0108613/
◎豆瓣评星 ★★★✦☆
◎豆瓣评分 6.9/10 from 16,390 users
◎豆瓣链接 https://movie.douban.com/subject/1305837/
◎片  长 96 分钟
◎导  演 张海靖 / Hoi-Ching Cheung
◎演  员 元彪 / Biao Yuen
      张敏 / Sharla Cheung
      李修贤 / Danny Lee
      吴孟达 / Man Tat Ng
      袁咏仪 / Anita Yuen
      叶全真 / Elsie Yeh
      李美凤 / Elizabeth Lee
      徐锦江 / Elvis Tsui
      史宝华 / Bo-Wa Shut
      午马 / Wu Ma
      关顺田 / Shuntian Guan
      太保 / Po Tai
      陈龙 / Peter Chan Lung
      吴元俊 / Yuan-chun Wu
      龙方 / Fong Lung
◎编  剧 张海靖 / Hoi-Ching Cheung
      韦辛 / Hsin Wei
      金庸 / Louis Cha
◎制  片  人 沈阳 / Shum Sam
◎音  乐 雷颂德 / Mark Lui
◎摄  影 潘德业 / Stephen Poon Tak-Yip
      刘鸿泉 / Hung Chuen Lau
◎美  术 梁志兴 / Chi-Hing Leung
◎行动特技 元武 / Wu Yuan
      袁振洋 / Brandy Yuen

◎标  签 武侠 | 香港 | 行动 | 1993 | 电影 | 古装 | 中国 | 典范

◎简  介 

  明代末年奸臣当道,朝廷的忠义上将因受谗谄被抄家,仅年幼的儿子袁承志(元彪  饰)逃出。十六年后,袁承志长大成人,无意中获得一份武功秘籍和藏宝图,起头了寻宝之路。时代,袁承志目击明代官匪勾结,百姓流浪失所,又受父亲的影响,一向想追求强国之路。旅途中,袁承志碰到志同道合的巨贾多尔衮,一路结伴随行。时代遭受绑匪,被卷入江湖帮派与五毒教的恩怨当中。终极袁承志靠坦荡胸怀和高明的技艺化解了恩怨。为了削弱满清对明代的威胁,袁承志决议刺杀皇太极,却发现多尔衮居然是满清亲王。最初,按照藏宝图的记录,袁承志终究找到宝藏并献给了闯王,留意闯王能重整明代河山。可是,明代天子胸无弘愿,袁承志又备受闯王手下排挤,满清势力日渐强大。袁承志深感壮志难酬,意气消沉之下,只得远走外洋。

  1. General
  2. ID : 1 (0x1)
  3. Complete name : The Sword Stained with Royal Blood 1993 HDTV 1080i H.264 MPEG Audio 2.0-TAG.ts
  4. Format : MPEG-TS
  5. File size : 6.13 GiB
  6. Duration : 1 h 37 min
  7. Overall bit rate mode : Variable
  8. Overall bit rate : 8 968 kb/s
  9. Maximum Overall bit rate : 35.5 Mb/s

  10. Video
  11. ID : 4113 (0x1011)
  12. Menu ID : 1 (0x1)
  13. Format : AVC
  14. Format/Info : Advanced Video Codec
  15. Format profile : Main@L4
  16. Format settings : CABAC / 2 Ref Frames
  17. Format settings, CABAC : Yes
  18. Format settings, Reference fra : 2 frames
  19. Codec ID : 27
  20. Duration : 1 h 37 min
  21. Bit rate mode : Variable
  22. Bit rate : 8 137 kb/s
  23. Maximum bit rate : 15.0 Mb/s
  24. Width : 1 920 pixels
  25. Height : 1 080 pixels
  26. Display aspect ratio : 16:9
  27. Frame rate : 25.000 FPS
  28. Standard : Component
  29. Color space : YUV
  30. Chroma subsampling : 4:2:0
  31. Bit depth : 8 bits
  32. Scan type : MBAFF
  33. Scan type, store method : Interleaved fields
  34. Scan order : Top Field First
  35. Bits/(Pixel*Frame) : 0.157
  36. Stream size : 5.56 GiB (91%)
  37. Color range : Limited

  38. Audio
  39. ID : 4352 (0x1100)
  40. Menu ID : 1 (0x1)
  41. Format : MPEG Audio
  42. Format version : Version 1
  43. Format profile : Layer 2
  44. Codec ID : 4
  45. Duration : 1 h 37 min
  46. Bit rate mode : Constant
  47. Bit rate : 384 kb/s
  48. Channel(s) : 2 channels
  49. Sampling rate : 48.0 kHz
  50. Frame rate : 41.667 FPS (1152 SPF)
  51. Compression mode : Lossy
  52. Stream size : 269 MiB (4%)
复制代码
新碧血剑 [国语 中英笔墨幕].The.Sword.Stained.with.Royal.Blood.1993.HDTV.1080i.H.264.MPEG.Audio.2.0-TAG 6.13GB-2.png
新碧血剑 [国语 中英笔墨幕].The.Sword.Stained.with.Royal.Blood.1993.HDTV.1080i.H.264.MPEG.Audio.2.0-TAG 6.13GB-3.png
新碧血剑 [国语 中英笔墨幕].The.Sword.Stained.with.Royal.Blood.1993.HDTV.1080i.H.264.MPEG.Audio.2.0-TAG 6.13GB-4.png
新碧血剑 [国语 中英笔墨幕].The.Sword.Stained.with.Royal.Blood.1993.HDTV.1080i.H.264.MPEG.Audio.2.0-TAG 6.13GB-5.png






新种保举请利用qBittorrent,utorrent,transmission等标准BT软件下载!以获得最快速度。请大师下载完成后不要封闭下载软件 进献出自己的上传带宽 人报酬我 我为大家!








回复

使用道具 举报

蓝光币
119
发表于 2024-5-23 16:29:25 | 显示全部楼层
楼主发贴辛苦了,谢谢楼主分享!我觉得蓝光电影网是注册对了!
回复

使用道具 举报

懒得打字嘛,点击右侧快捷回复 【右侧内容,后台自定义】
您需要登录后才可以回帖 登录 | 立即加入

本版积分规则

Archiver| |网站地图

Copyright © 2024 Comsenz Inc. Powered by 蓝光电影网

本站内容由用户自主分享和转载自互联网,转载目的在于传递更多信息,并不代表本网赞同其观点和对其真实性负责。

如有侵权、违反国家法律政策行为,请联系我们,我们会第一时间及时清除和处理!

举报反馈邮箱:4k1080.com@gmail.com

快速回复 返回顶部 返回列表