找回密码

查看: 367|回复: 5

[剧情] 红字 / 红色禁恋 [DIY央视国语+国配字幕/繁中/双语字幕].The.Scarlet.Letter.1995.1080p.BluRay.AVC.DTS-HD.MA.5.1-TAG 37.90GB

[复制链接]
蓝光币
1982
发表于 2024-5-22 18:56:23 | 显示全部楼层 |阅读模式
红字 / 红色禁恋 [DIY央视国语+国配字幕/繁中/双语字幕].The.Scarlet.Letter.1995.1080p.BluRay.AVC.DTS-HD.MA.5.1-TAG 37.90GB-1.jpg


◎译  名 红字 / 红色禁恋
◎片  名 The Scarlet Letter
◎年  代 1995
◎产  地 美国
◎类  别 剧情 / 恋爱
◎语  言 英语
◎上映日期 1995-10-13(美国)
◎IMDb评分  5.3/10 from 15,407 users
◎IMDb链接  https://www.imdb.com/title/tt0114345/
◎豆瓣评分 7.4/10 from 6,448 users
◎豆瓣链接 https://movie.douban.com/subject/1301536/
◎片  长 135 分钟
◎导  演 罗兰·约菲 / Roland Joffé
◎演  员 黛米·摩尔 / Demi Moore
      加里·奥德曼 / Gary Oldman
      罗伯特·杜瓦尔 / Robert Duvall
      Kristin Fairlie Kristin Fairlie
      罗伊·多特里斯 / Roy Dotrice
      George Aguilar George Aguilar
      Scout LaRue Willis Scout LaRue Willis
      埃里克·施维克 / Eric Schweig
      爱德华·哈德威克 / Edward Hardwicke
      丹娜·爱薇 / Dana Ivey
      罗伯特·普罗斯基 / Robert Prosky
      琼·普莱怀特 / Joan Plowright
      乔迪·梅 / Jodhi May
      黛安·萨林格 / Diane Salinger
      马尔科姆·斯托里 / Malcolm Storry
      蒂姆·伍德沃德 / Tim Woodward
      艾米·莱特 / Amy Wright
      Tallulah Belle Willis Tallulah Belle Willis
◎编  剧 纳撒尼尔·霍桑 / Nathaniel Hawthorne
      道格拉斯·戴·斯图尔特 / Douglas Day Stewart
◎制  片  人 Jonathan Cornick Jonathan Cornick
      罗兰·约菲 / Roland Joffé
      Dodi Fayed Dodi Fayed
      罗伯特F. / 科尔斯贝利 Robert F. Colesberry
      Tova Laiter Tova Laiter
      安德鲁·G·瓦吉纳 / Andrew G. Vajna
◎音  乐 约翰·巴里 / John Barry
◎摄  影 亚历克斯·汤姆森 / Alex Thomson
◎剪  辑 汤姆·诺伯 / Thom Noble
◎选  角 Elisabeth Leustig Elisabeth Leustig
◎美  术 罗伊·沃克 / Roy Walker
      Tony Woollard Tony Woollard
      罗莎琳德·欣格尔顿 / Rosalind Shingleton
      约瑟夫·穆索 / Joseph Musso
◎服  装 加布里埃尔·佩斯卡西 / Gabriella Pescucci
◎化  妆 法布里齐奥·斯福尔扎 / Fabrizio Sforza
      Serge Morache Serge Morache
      Jennifer Bower O'Halloran Jennifer Bower O'Halloran
◎副  导  演 Stephen Bélanger Stephen Bélanger
      Jonathan Wright Jonathan Wright
      拉斯·P·温特 / Lars P. Winther
      巴迪·乔·胡克 / Buddy Joe Hooker
      Dennis Maguire Dennis Maguire

◎简  介 

  故事发生在17世纪。赫丝特(黛米·摩尔 Demi Moore 饰)分开丈夫,孤身一人来到马萨诸塞湾的英属殖民地假寓。在这里开辟的英国人信仰果断,固守清规,赫丝特的一些行为在这压制的殖民地情况下很是引人注视。当地的牧师阿瑟(加里·奥德曼 Gary Oldman 饰)英俊而富有豪情,赫丝特为他的神彩深深吸引,两本性情相投的人很快堕入了危险的热恋。未几殖民地方面接到了赫丝特的医生丈夫被印第安人杀戮的消息,本以为可以公然关系的一对情人等到的却是东窗事发,赫丝特为庇护阿瑟,拒绝供认通奸者,自此被投入牢狱直至产下一位女婴,而阿瑟则在牢狱外日日承受心灵的拷问……出狱后的赫丝特戴上了通奸者的羞辱标志,同时她浩劫不死的丈夫忽然现身,誓要将通奸者揪出以宣泄心中怒火……

  1. DISC INFO:

  2. Disc Title: The Scarlet Letter
  3. Disc Label: 红字.The.Scarlet.Letter.1995.1080p.BluRay.AVC.DTS-HD.MA.5.1-TAG
  4. Disc Size: 40,697,669,194 bytes
  5. Protection: AACS
  6. BDInfo: 0.7.5.6

  7. PLAYLIST REPORT:

  8. Name: 00004.MPLS
  9. Length: 2:15:35.293 (h:m:s.ms)
  10. Size: 40,030,291,968 bytes
  11. Total Bitrate: 39.36 Mbps

  12. VIDEO:

  13. Codec Bitrate Description
  14. ----- ------- -----------
  15. MPEG-4 AVC Video 33012 kbps 1080p / 23.976 fps / 16:9 / High Profile 4.1

  16. AUDIO:

  17. Codec Language Bitrate Description
  18. ----- -------- ------- -----------
  19. DTS-HD Master Audio English 2045 kbps 5.1 / 48 kHz / 2045 kbps / 16-bit (DTS Core: 5.1 / 48 kHz / 1509 kbps / 16-bit)
  20. DTS-HD Master Audio English 1555 kbps 2.0 / 48 kHz / 1555 kbps / 16-bit (DTS Core: 2.0 / 48 kHz / 1509 kbps / 16-bit)
  21. Dolby Digital Audio English 192 kbps 2.0 / 48 kHz / 192 kbps / DN -31dB
  22. Dolby Digital Audio Chinese 192 kbps 2.0 / 48 kHz / 192 kbps / DN -31dB 央视国语

  23. SUBTITLES:

  24. Codec Language Bitrate Description
  25. ----- -------- ------- -----------
  26. Presentation Graphics English 21.928 kbps
  27. Presentation Graphics Chinese 20.893 kbps 国语字幕
  28. Presentation Graphics Chinese 21.179 kbps 繁体字幕
  29. Presentation Graphics Chinese 43.471 kbps 双语字幕

  30. FILES:

  31. Name Time In Length Size Total Bitrate
  32. ---- ------- ------ ---- -------------
  33. 00008.M2TS 0:00:00.000 0:00:11.010 712,704 518
  34. 00004.M2TS 0:00:11.010 2:15:12.104 40,021,248,000 39,468
  35. 00013.M2TS 2:15:23.115 0:00:12.178 8,331,264 5,473
复制代码
红字 / 红色禁恋 [DIY央视国语+国配字幕/繁中/双语字幕].The.Scarlet.Letter.1995.1080p.BluRay.AVC.DTS-HD.MA.5.1-TAG 37.90GB-2.png
红字 / 红色禁恋 [DIY央视国语+国配字幕/繁中/双语字幕].The.Scarlet.Letter.1995.1080p.BluRay.AVC.DTS-HD.MA.5.1-TAG 37.90GB-3.png
红字 / 红色禁恋 [DIY央视国语+国配字幕/繁中/双语字幕].The.Scarlet.Letter.1995.1080p.BluRay.AVC.DTS-HD.MA.5.1-TAG 37.90GB-4.png
红字 / 红色禁恋 [DIY央视国语+国配字幕/繁中/双语字幕].The.Scarlet.Letter.1995.1080p.BluRay.AVC.DTS-HD.MA.5.1-TAG 37.90GB-5.png






新种保举请利用qBittorrent,utorrent,transmission等标准BT软件下载!以获得最快速度。请大师下载完成后不要封闭下载软件 进献出自己的上传带宽 人报酬我 我为大家!








相关帖子

回复

使用道具 举报

蓝光币
114
发表于 2024-5-22 21:20:29 来自手机 | 显示全部楼层
感谢楼主分享
回复

使用道具 举报

蓝光币
182
发表于 2024-5-23 00:49:15 | 显示全部楼层
楼主发贴辛苦了,谢谢楼主分享!我觉得蓝光电影网是注册对了!
回复

使用道具 举报

蓝光币
804
发表于 2024-5-23 08:35:46 | 显示全部楼层

既然你诚信诚意的推荐了,那我就勉为其难的看看吧!蓝光电影网不走平凡路。
回复

使用道具 举报

蓝光币
410
发表于 2024-5-24 12:46:27 | 显示全部楼层

楼主太厉害了!楼主,电影应该很好看我觉得蓝光电影网真是个好地方!
回复

使用道具 举报

蓝光币
384
发表于 2024-5-28 14:35:06 | 显示全部楼层
楼主发贴辛苦了,谢谢楼主分享!我觉得蓝光电影网是注册对了!
回复

使用道具 举报

懒得打字嘛,点击右侧快捷回复 【右侧内容,后台自定义】
您需要登录后才可以回帖 登录 | 立即加入

本版积分规则

Archiver| |网站地图

Copyright © 2024 Comsenz Inc. Powered by 蓝光电影网

本站内容由用户自主分享和转载自互联网,转载目的在于传递更多信息,并不代表本网赞同其观点和对其真实性负责。

如有侵权、违反国家法律政策行为,请联系我们,我们会第一时间及时清除和处理!

举报反馈邮箱:4k1080.com@gmail.com

快速回复 返回顶部 返回列表