找回密码

查看: 261|回复: 2

[动作] 合气道 [美版2K修复原盘/原生国语DIY简繁中字].Lady.Kung.Fu.1972.USA.BluRay.1080p.AVC.DTS-HD.MA.1.0-TAG 45.36GB

[复制链接]
蓝光币
1982
发表于 2024-5-21 16:17:51 | 显示全部楼层 |阅读模式
合气道 [美版2K修复原盘/原生国语DIY简繁中字].Lady.Kung.Fu.1972.USA.BluRay.1080p.AVC.DTS-HD.MA.1.0-TAG 45.36GB-1.jpg

◎译  名 Hapkido / Lady Kung Fu / 黑燕飞手 / Hap Ki Do
◎片  名 合气道
◎年  代 1972
◎产  地 中国香港
◎类  别 剧情 / 行动
◎语  言 粤语
◎上映日期 1972-10-12(中国香港)
◎IMDb评分  6.8/10 from 877 users
◎IMDb链接  https://www.imdb.com/title/tt0068676/
◎豆瓣评分 6.4/10 from 440 users
◎豆瓣链接 https://movie.douban.com/subject/2122869/
◎片  长 97分钟
◎导  演 黄枫 / Feng Huang
◎演  员 茅瑛 / Angela Mao
      洪金宝 / Sammo Hung Kam-Bo
      黄家达 / Carter Wong
      白鹰 / Ying Bai
      黄仁植 / In-Sik Whang
      薛家燕 / Nancy Sit
      梁小龙 / Siu-Lung Leung
      成龙 / Jackie Chan
      林正英 / Ching-Ying Lam
      元奎 / Corey Yuen
      曾楚霖 / Choh-Lam Tsang
      池汉载 / Han Jae Ji
      刘准 / Cheun Lau
      吴元俊 / Yuan-chun Wu
      郝履仁 / Li Jen Ho
      魏平澳 / Ping-Ao Wei
      元彪 / Biao Yuen
      孙岚 / Lan Sun
      陈会毅 / Billy Chan
◎编  剧 何仁 / Yan Ho
◎制  片  人 邹文怀 / Raymond Chow
◎剪  辑 张耀宗 / Peter Cheung
◎副  导  演 沈渊 / Yuen Shen

◎简  介 

  1934年在日本武术黉舍之间有开放对手战役。有一次战役在市场, 三名中国门生当他们辅佐帮会进犯战役以致他们的黉舍被损坏,而且他们被驱逐。
  这三名门生回到了中国,并建立了他们自己的黉舍,也下决心在友爱拜候对别的武术黉舍,在拜候中他们发现了兄弟黉舍由日本人已经控制……


  1. DISC INFO:

  2. Disc Label: BDAREA
  3. Disc Size: 48,703,729,064 bytes
  4. Protection: AACS
  5. BDInfo: 0.7.5.5

  6. PLAYLIST REPORT:

  7. Name: 00001.MPLS
  8. Length: 1:37:29.969 (h:m:s.ms)
  9. Size: 30,783,349,056 bytes
  10. Total Bitrate: 42.10 Mbps

  11. VIDEO:

  12. Codec Bitrate Description
  13. ----- ------- -----------
  14. MPEG-4 AVC Video 34673 kbps 1080p / 23.976 fps / 16:9 / High Profile 4.1

  15. AUDIO:

  16. Codec Language Bitrate Description
  17. ----- -------- ------- -----------
  18. DTS-HD Master Audio Chinese 862 kbps 1.0 / 48 kHz / 862 kbps / 24-bit (DTS Core: 1.0 / 48 kHz / 512 kbps / 24-bit)
  19. DTS-HD Master Audio English 845 kbps 1.0 / 48 kHz / 845 kbps / 24-bit (DTS Core: 1.0 / 48 kHz / 512 kbps / 24-bit)
  20. DTS-HD Master Audio English 804 kbps 1.0 / 48 kHz / 804 kbps / 24-bit (DTS Core: 1.0 / 48 kHz / 512 kbps / 24-bit)
  21. DTS-HD Master Audio English 1685 kbps 5.1 / 48 kHz / 1685 kbps / 16-bit (DTS Core: 5.1 / 48 kHz / 896 kbps / 16-bit)
  22. Dolby Digital Audio English 320 kbps 2.0 / 48 kHz / 320 kbps / DN -31dB
  23. Dolby Digital Audio English 320 kbps 2.0 / 48 kHz / 320 kbps / DN -31dB

  24. SUBtitleS:

  25. Codec Language Bitrate Description
  26. ----- -------- ------- -----------
  27. Presentation Graphics English 20.389 kbps
  28. Presentation Graphics English 0.347 kbps
  29. Presentation Graphics Chinese 15.238 kbps
  30. Presentation Graphics Chinese 15.527 kbps

  31. FILES:

  32. Name Time In Length Size Total Bitrate
  33. ---- ------- ------ ---- -------------
  34. 00011.M2TS 0:00:00.000 0:00:01.000 660,864 5,070
  35. 00000.M2TS 0:00:01.000 1:37:27.967 30,782,027,328 42,109
  36. 00012.M2TS 1:37:28.968 0:00:01.000 660,864 5,070
复制代码
合气道 [美版2K修复原盘/原生国语DIY简繁中字].Lady.Kung.Fu.1972.USA.BluRay.1080p.AVC.DTS-HD.MA.1.0-TAG 45.36GB-2.jpg
合气道 [美版2K修复原盘/原生国语DIY简繁中字].Lady.Kung.Fu.1972.USA.BluRay.1080p.AVC.DTS-HD.MA.1.0-TAG 45.36GB-3.jpeg
合气道 [美版2K修复原盘/原生国语DIY简繁中字].Lady.Kung.Fu.1972.USA.BluRay.1080p.AVC.DTS-HD.MA.1.0-TAG 45.36GB-4.jpeg
合气道 [美版2K修复原盘/原生国语DIY简繁中字].Lady.Kung.Fu.1972.USA.BluRay.1080p.AVC.DTS-HD.MA.1.0-TAG 45.36GB-5.jpeg
合气道 [美版2K修复原盘/原生国语DIY简繁中字].Lady.Kung.Fu.1972.USA.BluRay.1080p.AVC.DTS-HD.MA.1.0-TAG 45.36GB-6.jpeg
合气道 [美版2K修复原盘/原生国语DIY简繁中字].Lady.Kung.Fu.1972.USA.BluRay.1080p.AVC.DTS-HD.MA.1.0-TAG 45.36GB-7.jpeg
合气道 [美版2K修复原盘/原生国语DIY简繁中字].Lady.Kung.Fu.1972.USA.BluRay.1080p.AVC.DTS-HD.MA.1.0-TAG 45.36GB-8.jpeg
合气道 [美版2K修复原盘/原生国语DIY简繁中字].Lady.Kung.Fu.1972.USA.BluRay.1080p.AVC.DTS-HD.MA.1.0-TAG 45.36GB-9.jpeg
合气道 [美版2K修复原盘/原生国语DIY简繁中字].Lady.Kung.Fu.1972.USA.BluRay.1080p.AVC.DTS-HD.MA.1.0-TAG 45.36GB-10.jpeg
合气道 [美版2K修复原盘/原生国语DIY简繁中字].Lady.Kung.Fu.1972.USA.BluRay.1080p.AVC.DTS-HD.MA.1.0-TAG 45.36GB-11.jpeg
合气道 [美版2K修复原盘/原生国语DIY简繁中字].Lady.Kung.Fu.1972.USA.BluRay.1080p.AVC.DTS-HD.MA.1.0-TAG 45.36GB-12.jpeg
合气道 [美版2K修复原盘/原生国语DIY简繁中字].Lady.Kung.Fu.1972.USA.BluRay.1080p.AVC.DTS-HD.MA.1.0-TAG 45.36GB-13.jpeg
合气道 [美版2K修复原盘/原生国语DIY简繁中字].Lady.Kung.Fu.1972.USA.BluRay.1080p.AVC.DTS-HD.MA.1.0-TAG 45.36GB-14.jpg






新种保举请利用qBittorrent,utorrent,transmission等标准BT软件下载!以获得最快速度。请大师下载完成后不要封闭下载软件 进献出自己的上传带宽 人报酬我 我为大家!








回复

使用道具 举报

蓝光币
139
发表于 2024-5-22 09:50:46 | 显示全部楼层
楼主发贴辛苦了,谢谢楼主分享!我觉得蓝光电影网是注册对了!
回复

使用道具 举报

蓝光币
615
发表于 2024-5-22 11:29:44 | 显示全部楼层
谢谢楼主
回复

使用道具 举报

懒得打字嘛,点击右侧快捷回复 【右侧内容,后台自定义】
您需要登录后才可以回帖 登录 | 立即加入

本版积分规则

Archiver| |网站地图

Copyright © 2024 Comsenz Inc. Powered by 蓝光电影网

本站内容由用户自主分享和转载自互联网,转载目的在于传递更多信息,并不代表本网赞同其观点和对其真实性负责。

如有侵权、违反国家法律政策行为,请联系我们,我们会第一时间及时清除和处理!

举报反馈邮箱:4k1080.com@gmail.com

快速回复 返回顶部 返回列表