找回密码

查看: 104|回复: 0

[剧情] 皮雷的慷慨.Perriers.Bounty.2009.1080p.BluRay.REMUX.AVC.DTS-HD.MA.5.1-Asmo 15.38GB

[复制链接]
蓝光币
8
发表于 2024-5-19 10:40:37 | 显示全部楼层 |阅读模式



译  名 皮雷的大方
片  名 Perrier's Bounty
年  代 2010
产  地 爱尔兰 / 英国
类  别 剧情 / 笑剧 / 行动 / 惊悚 / 犯罪
语  言 英语
上映日期 2010-05-14
IMDb评星  ★★★★★★✦☆☆☆
IMDb评分  6.3/10 from 7,456 users
IMDb链接  https://www.imdb.com/title/tt1003034/
豆瓣评星 ★★★✦☆
豆瓣评分 7.2/10 from 437 users
豆瓣链接 https://movie.douban.com/subject/3008269/
片  长 88 分钟
导  演 伊安·费兹本 / Ian Fitzgibbon
演  员 基里安·墨菲 / Cillian Murphy
      布莱丹·格里森 / Brendan Gleeson
      加布里埃尔·伯恩 / Gabriel Byrne
      吉姆·布劳德本特 / Jim Broadbent
      娜塔莉·布里顿 / Natalie Britton
      迈克尔·麦克埃尔哈顿 / Michael McElhatton
      朱迪·惠特克 / Jodie Whittaker
      多姆纳尔·格里森 / Domhnall Gleeson | 饰 Clifford
       Chantal Dias
      瑞克·克劳福德 / Rick Crawford
      安德鲁·辛普森 / Andrew Simpson
      克里斯·纽曼 / Chris Newman
      帕德莱克·德兰尼 / Padraic Delaney
      康勒斯·希尔 / Conleth Hill
      迈克尔·菲茨杰拉德 / Michael FitzGerald
编  剧 马克·奥罗 / Mark O'Rowe
制  片  人 伊丽莎白·卡尔森 / Elizabeth Karlsen
      斯蒂芬·伍利 / Stephen Woolley
      艾伦·莫洛尼 / Alan Moloney
音  乐 大卫·霍尔姆斯 / David Holmes
摄  影 Seamus Deasy Seamus Deasy
剪  辑 托尼·克兰斯顿 / Tony Cranstoun
选  角 妮娜·古德 / Nina Gold
服  装 基思·马登 / Keith Madden
化  妆 弗朗西丝·汉农 / Frances Hannon
视觉殊效 John Kennedy John Kennedy

简  介 

  迈克尔(希里安•墨菲 Cillian Murphy 饰)是一个不学无术,成天游手好闲的青年,他欠了达伦(布莱丹•格里森 Brendan Gleeson 饰)一大笔钱有力了偿,糟糕的是,达伦是当地最污名昭著的黑帮头头。布兰达(茱蒂•惠特克 Jodie Whittaker 饰)是迈克尔的朋友,在一场意外中,她误杀了达伦手下的一个小喽啰,偶合的是,迈克尔的父亲吉姆(吉姆•布劳德本特 Jim Broadbent 饰)恰好出现在凶杀现场,成为了目击证人,三报酬了躲避达伦的追杀不能不踏上了流亡的旅途。
  父亲难产而又刚强的性情,布兰达脸上永久愁云暗澹的脸色,持续不断的麻烦和意外简直要将迈克尔给逼疯。

幕后揭秘

  【个人创作 难产的剧本】

  虽然直到2009年的多伦多国际电影节才举行全球首映,可是《皮雷的大方》这个剧本却早在7年前就起头了创作。阿谁时辰,本片的编剧马克·奥罗刚刚竣事了《玩命911》的剧本的写作。不外,这个剧本要比设想得“难产”很多。4年后的2007年,马克·奥罗写出了《男孩A》的剧本,可是《皮雷的大方》还泥牛入海。

  《皮雷的大方》聚焦于爱尔兰黑帮流亡的生活,影片的故工作节并不新颖,不外在马克·奥罗的编写之下,这部黑帮片酿成了一部黑色笑剧片。谈及剧本的创作,马克·奥罗说:“当我写完《玩命911》以后,我脑子里忽然有了一个关于爱尔兰黑帮玩命流亡的故事。这个故事起头于对话。我给自己定了一个使命,那就是要在一个相对不长的时候里让观众对故事中的人物发生爱好。看起来这像是说鬼话,可是假如这类电影没有法子在一个相对短的时候内捉住观众的眼球,那末就算是失利了。在写作的时辰,我和伊安·费兹本还有主演们会商了很多。很兴奋能获得他们中肯的倡议。而那些人物的台词也是在个人的尽力之下一点一点拼集起来的。我感觉这样的剧本,才是真正切近生活的,而且这些演员都是爱尔兰的招牌演员,他们的定见常常比力中肯也很现实。实在,可以说是他们点窜和提炼让这个以说话为主打的剧本上了一个台阶。”

  【导演长项 黑色笑剧】

  诞生于爱尔兰都柏林的伊安·费兹本在国际影坛上虽然没有什么太大的名望,可是在他的故乡都柏林,他却是个家喻户晓的人物。终年活跃于爱尔兰电视界的伊安·费兹本,不但擅长执导犯罪题材的电视剧,而且还很会搞搞“黑色诙谐”。 在大玩特玩黑色诙谐的影片《一部有我出镜的影片》在爱尔兰成功以后,伊安·费兹本仿佛成为了当地黑色诙谐的代言人。

  《皮雷的大方》的制片人伊丽莎白·卡尔森(Elizabeth Karlsen)说:“看到了刚刚有雏形的剧本以后,我就晓得,这个电影非得由费兹原本拍摄了。在爱尔兰,能拍摄好这么一部带有黑色诙谐,看上去一惊一乍影片的,只要他。这个剧本自己就已经很有费兹本影片的感受了,假如再加上费兹本的亲力亲为,我想《皮雷的大方》必定能成为费兹本和黑色电影的代表作。”

  面临着剧本,伊安·费兹本很是欣喜。他说:“我没有想到终年活跃在戏剧界的马克奥罗居然能写出这么一个具有丰富电影性的剧本。里面的调皮话、台词的反讽和一些奇希奇怪的脚色都让我沉迷。看完了以后,我心里就有了这部电影的大要表面。拍摄出来的话,这会是一部黑色诙谐的影片。我喜好黑色诙谐,由于在笑完了以后还有回味的空间和余地。在一部黑色诙谐的电影里,观众的笑绝不但仅是被电影逗笑,而是一种被触及到了心理底线以后的笑。看着银幕上的人上蹿下跳,被火烧到了屁股,谁不想笑?不外在笑完后,黑色诙谐能让你记着,而一般的笑剧片也就转眼即逝了。”

  【爱尔兰大腕 黄金配角】

  有了坚固的剧本以及和剧底细得益彰的导演以后,影片最大的亮点就是划一的爱尔兰演员的声势了。虽然这些平常活跃在天下影坛上的配角演员没有好莱坞明星那末大的号令力,可是论气力,他们的整体水平不容小觑。不管是饰演迈克尔的希里安·墨菲、饰演黑帮老迈的布莱丹·格里森,还是饰演迈克尔父亲的吉姆·布劳德本特都是爱尔兰响当当的演员。

  看着这样的演员声势马克·奥罗很是冲动。他说:“在爱尔兰,没有比这些演员再强的卡司了。我本也没有想到能找来这么多当地的明星出演影片,不外有他们在电影里,我就不用担忧电影的质量了。不管怎样说,他们是我能找到最好的演员。我感觉,我们一路写出来的那些长篇的台词在他们的嘴里说出来,才算是名至实归。现在看到了成片,我感觉假如这些台词从他人嘴里说出来,能够就是一场灾难了。”

  不可是编剧,演员诞生的导演伊安·费兹本也对这些黄金演员赞不停口。他说:“我晓得干演员很不轻易,也晓得要看上去随口说出这么复杂的台词有多困难。不外我的剧组还是顺遂而且美满地完成了这类艰难的使命。这些演员实在是太棒了,我几近没有费什么气力,这部电影就拍摄了下来。这些爱尔兰的演员,绝对是一流的。”
  1. Perriers.Bounty.2009.1080p.BluRay.REMUX.AVC.DTS-HD.MA.5.1-Asmo

  2. Stream #0:0(eng): Video: h264 (High), yuv420p(tv, bt709, progressive), 1920x1080 [SAR 1:1 DAR 16:9], 23.98 fps, 23.98 tbr, 1k tbn, 47.95 tbc (default)
  3. Stream #0:1(eng): Audio: dts (DTS-HD MA), 48000 Hz, 5.1(side), s16p (default)
  4. Stream #0:2(rus): Audio: dts (DTS-HD MA), 48000 Hz, 5.1(side), s16p
  5. Stream #0:3(bul): Subtitle: hdmv_pgs_subtitle
  6. Stream #0:4(cze): Subtitle: hdmv_pgs_subtitle
  7. Stream #0:5(dut): Subtitle: hdmv_pgs_subtitle
  8. Stream #0:6(eng): Subtitle: hdmv_pgs_subtitle
  9. Stream #0:7(fin): Subtitle: hdmv_pgs_subtitle
  10. Stream #0:8(hun): Subtitle: hdmv_pgs_subtitle
  11. Stream #0:9(ita): Subtitle: hdmv_pgs_subtitle
  12. Stream #0:10(pol): Subtitle: hdmv_pgs_subtitle
  13. Stream #0:11(rum): Subtitle: hdmv_pgs_subtitle
  14. Stream #0:12(srp): Subtitle: hdmv_pgs_subtitle
  15. Stream #0:13(spa): Subtitle: hdmv_pgs_subtitle
  16. Stream #0:14(tur): Subtitle: hdmv_pgs_subtitle
复制代码






回复

使用道具 举报

懒得打字嘛,点击右侧快捷回复 【右侧内容,后台自定义】
您需要登录后才可以回帖 登录 | 立即加入

本版积分规则

Archiver| |网站地图

Copyright © 2024 Comsenz Inc. Powered by 蓝光电影网

本站内容由用户自主分享和转载自互联网,转载目的在于传递更多信息,并不代表本网赞同其观点和对其真实性负责。

如有侵权、违反国家法律政策行为,请联系我们,我们会第一时间及时清除和处理!

举报反馈邮箱:4k1080.com@gmail.com

快速回复 返回顶部 返回列表