找回密码

查看: 260|回复: 3

[剧情] 猎魔者+魔 [英版2K修复原盘/原生国粤语DIY简繁中字].Mercenaries.From.Hong.Kong+The.Boxer's.Omen.1983.GBR.2in1.BluRay.1080p.AVC.DTS-HD.MA.1.0-TAG 47.52GB

[复制链接]
蓝光币
1971
发表于 2024-5-19 00:34:44 | 显示全部楼层 |阅读模式
猎魔者+魔 [英版2K修复原盘/原生国粤语DIY简繁中字].Mercenaries.From.Hong.Kong+The.Boxer's.Omen.1983.GBR.2in1.BluRay.1080p.AVC.DTS-HD.MA.1.0-TAG 47.52GB-1.jpg

◎译  名 The Boxer's Omen
◎片  名 魔
◎年  代 1983
◎产  地 中国香港
◎类  别 剧情 / 可骇 / 奇异
◎语  言 粤语
◎上映日期 1983-10-29
◎IMDb评分  7.1/10 from 1,452 users
◎IMDb链接  https://www.imdb.com/title/tt0085951/
◎豆瓣评分 6.5/10 from 2,993 users
◎豆瓣链接 https://movie.douban.com/subject/2139299/
◎片  长 105 分钟
◎导  演 桂治洪 / Chih-Hung Kuei
◎演  员 高飞 / Phillip Ko
      王龙威 / Lung Wei Wang
      徐锦江 / Elvis Tsui
      金天柱 / Tien-Chu Chin
      刘准 / Cheun Lau
      林志泰 / Chi Tai Lam
      梁克逊 / Hak Shun Leung
      张作舟 / Chok Chow Cheung
      西瓜刨 / Gwa-pau Sai
      黎友兴 / You-Hsing Lai
      林威 / Wai Lam
◎编  剧 司徒安 / On Szeto
      桂治洪 / Chih-Hung Kuei
◎制  片  人 方逸华 / Mona Fong
◎音  乐 苏振厚 / Chen-Hou Su
◎摄  影 曹惠琪 / Hui-Chi Tsao
      阮定邦 / Yuen Teng-Bong
◎服  装 刘季友 / Chi-Yu Liu
◎现场殊效 桂治洪 / Chih-Hung Kuei
◎行动特技 朱客 / Ke Chu
◎其  它 黄金巴 / Kamber Huang
      彭雁联 / Yen-Lien Peng

◎简  介 

  黑道份子陈雄(高飞 饰)也是一位拳场高手,其弟与一位泰拳王比武,不辛被对方贱招暗害致残。陈雄本人也遇上了麻烦:大陆帮派将他诱入匿伏,幸而一红光幻象中的高僧出现,解了陈雄之围。陈雄为了给亲弟报仇,远赴泰国与泰拳王约战,时代陈雄偶然经过一座寺院,恰似红光幻象中的情形。院方僧人居然早知陈雄身份与来意,本来这里的清照大师(徐锦江 饰)收服了一位降头师,召来其徒弟的复仇,清照大师接近修成的金身被破,惟有与清照大师宿世为孪生兄弟的陈雄有希望助大师完成金身,断根一众降头师。自此陈雄落发,苦修佛法,与多名降头师展开连串惊心动魄、超越凡人常识的斗法。

  1. DISC INFO:

  2. Disc title: MAGNIFICENT RUFFIANS / TEN TIGERS OF KWANGTUNG
  3. Disc Label: BDAREA
  4. Disc Size: 51,016,623,735 bytes
  5. Protection: AACS
  6. BDInfo: 0.7.5.5

  7. PLAYLIST REPORT:

  8. Name: 00002.MPLS
  9. Length: 1:45:27.446 (h:m:s.ms)
  10. Size: 22,660,889,472 bytes
  11. Total Bitrate: 28.65 Mbps

  12. VIDEO:

  13. Codec Bitrate Description \----- ------- -----------
  14. MPEG-4 AVC Video 23987 kbps 1080p / 23.976 fps / 16:9 / High Profile 4.1

  15. AUDIO:

  16. Codec Language Bitrate Description \----- -------- ------- -----------
  17. DTS-HD Master Audio Chinese 822 kbps 1.0 / 48 kHz / 822 kbps / 24-bit (DTS Core: 1.0 / 48 kHz / 512 kbps / 24-bit)
  18. DTS-HD Master Audio Chinese 1002 kbps 1.0 / 48 kHz / 1002 kbps / 24-bit (DTS Core: 1.0 / 48 kHz / 512 kbps / 24-bit)
  19. Dolby Digital Audio English 320 kbps 2.0 / 48 kHz / 320 kbps / DN -31dB
  20. Dolby Digital Audio Chinese 448 kbps 2.0 / 48 kHz / 448 kbps / DN -31dB
  21. Dolby Digital Audio Chinese 448 kbps 2.0 / 48 kHz / 448 kbps / DN -31dB

  22. SUBtitleS:

  23. Codec Language Bitrate Description \----- -------- ------- -----------
  24. Presentation Graphics English 10.482 kbps
  25. Presentation Graphics Chinese 7.420 kbps
  26. Presentation Graphics Chinese 7.573 kbps

  27. FILES:

  28. Name Time In Length Size Total Bitrate ---- ------- ------ ---- -------------
  29. 00013.M2TS 0:00:00.000 0:00:01.000 316,800 2,431
  30. 00006.M2TS 0:00:01.000 1:45:25.444 22,660,556,928 28,659
  31. 00014.M2TS 1:45:26.445 0:00:01.000 15,744 121
复制代码
  1. DISC INFO:

  2. Disc title: MAGNIFICENT RUFFIANS / TEN TIGERS OF KWANGTUNG
  3. Disc Label: BDAREA
  4. Disc Size: 51,016,623,735 bytes
  5. Protection: AACS
  6. BDInfo: 0.7.5.5

  7. PLAYLIST REPORT:

  8. Name: 00001.MPLS
  9. Length: 1:35:27.722 (h:m:s.ms)
  10. Size: 21,240,999,936 bytes
  11. Total Bitrate: 29.67 Mbps

  12. VIDEO:

  13. Codec Bitrate Description \----- ------- -----------
  14. MPEG-4 AVC Video 23900 kbps 1080p / 23.976 fps / 16:9 / High Profile 4.1

  15. AUDIO:

  16. Codec Language Bitrate Description \----- -------- ------- -----------
  17. DTS-HD Master Audio Chinese 1089 kbps 1.0 / 48 kHz / 1089 kbps / 24-bit (DTS Core: 1.0 / 48 kHz / 768 kbps / 24-bit)
  18. DTS-HD Master Audio Chinese 959 kbps 1.0 / 48 kHz / 959 kbps / 24-bit (DTS Core: 1.0 / 48 kHz / 512 kbps / 24-bit)
  19. DTS-HD Master Audio English 968 kbps 1.0 / 48 kHz / 968 kbps / 24-bit (DTS Core: 1.0 / 48 kHz / 512 kbps / 24-bit)
  20. Dolby Digital Audio Chinese 448 kbps 2.0 / 48 kHz / 448 kbps / DN -31dB
  21. Dolby Digital Audio Chinese 448 kbps 2.0 / 48 kHz / 448 kbps / DN -31dB

  22. SUBtitleS:

  23. Codec Language Bitrate Description \----- -------- ------- -----------
  24. Presentation Graphics English 25.760 kbps
  25. Presentation Graphics English 25.897 kbps
  26. Presentation Graphics English 28.371 kbps
  27. Presentation Graphics English 0.544 kbps
  28. Presentation Graphics Chinese 17.149 kbps
  29. Presentation Graphics Chinese 17.493 kbps

  30. FILES:

  31. Name Time In Length Size Total Bitrate ---- ------- ------ ---- -------------
  32. 00011.M2TS 0:00:00.000 0:00:01.000 402,816 3,091
  33. 00005.M2TS 0:00:01.000 1:35:25.720 21,240,581,376 29,677
  34. 00012.M2TS 1:35:26.721 0:00:01.000 15,744 121
复制代码
猎魔者+魔 [英版2K修复原盘/原生国粤语DIY简繁中字].Mercenaries.From.Hong.Kong+The.Boxer's.Omen.1983.GBR.2in1.BluRay.1080p.AVC.DTS-HD.MA.1.0-TAG 47.52GB-2.jpg 猎魔者+魔 [英版2K修复原盘/原生国粤语DIY简繁中字].Mercenaries.From.Hong.Kong+The.Boxer's.Omen.1983.GBR.2in1.BluRay.1080p.AVC.DTS-HD.MA.1.0-TAG 47.52GB-3.jpg 猎魔者+魔 [英版2K修复原盘/原生国粤语DIY简繁中字].Mercenaries.From.Hong.Kong+The.Boxer's.Omen.1983.GBR.2in1.BluRay.1080p.AVC.DTS-HD.MA.1.0-TAG 47.52GB-4.jpg







新种保举请利用qBittorrent,utorrent,transmission等标准BT软件下载!以获得最快速度。请大师下载完成后不要封闭下载软件 进献出自己的上传带宽 人报酬我 我为大家!








回复

使用道具 举报

蓝光币
404
发表于 2024-5-19 08:20:20 | 显示全部楼层

楼主太厉害了!楼主,电影应该很好看我觉得蓝光电影网真是个好地方!
回复

使用道具 举报

蓝光币
32
发表于 2024-5-19 10:16:32 | 显示全部楼层

楼主太厉害了!楼主,电影应该很好看我觉得蓝光电影网真是个好地方!
回复

使用道具 举报

蓝光币
132
发表于 2024-5-19 20:09:59 来自手机 | 显示全部楼层
感谢分享11111111111
回复

使用道具 举报

懒得打字嘛,点击右侧快捷回复 【右侧内容,后台自定义】
您需要登录后才可以回帖 登录 | 立即加入

本版积分规则

Archiver| |网站地图

Copyright © 2024 Comsenz Inc. Powered by 蓝光电影网

本站内容由用户自主分享和转载自互联网,转载目的在于传递更多信息,并不代表本网赞同其观点和对其真实性负责。

如有侵权、违反国家法律政策行为,请联系我们,我们会第一时间及时清除和处理!

举报反馈邮箱:4k1080.com@gmail.com

快速回复 返回顶部 返回列表