找回密码

查看: 606|回复: 7

[2160p-WEB] 回南天 [国语/内嵌简中][4KHQ高码/60FPS].Damp.Season.2020.60FPS.2160p.WEB-DL.H265.10bit.AAC-TAG 18.72GB

[复制链接]
蓝光币
1982
发表于 2024-5-18 21:50:12 | 显示全部楼层 |阅读模式
回南天 [国语/内嵌简中][4KHQ高码/60FPS].Damp.Season.2020.60FPS.2160p.WEB-DL.H265.10bit.AAC-TAG 18.72GB-1.jpg
◎译  名 Damp Season
◎片  名 回南天
◎年  代 2020
◎产  地 中国大陆
◎类  别 剧情
◎语  言 汉语普通话 / 粤语
◎上映日期 2020-01-27(鹿特丹国际电影节) / 2022-06-24(中国大陆)
◎豆瓣评星 ★★✦☆☆
◎豆瓣评分 5.0/10 from 378,741 users
◎豆瓣链接 https://movie.douban.com/subject/30491798/
◎片  长 107分钟
◎导  演 高鸣 / Gaoming Liu
◎演  员 黄宇聪 / Yucong Huang | 饰 小东
      陈宣宇 / Xuanyu Chen | 饰 杜鹃
      梁龙 / Long Liang | 饰 龙教员
      林子熙 / Phoebe Lin
      邱炯炯 / Jiongjiong Qiu | 饰 香客
◎编  剧 高鸣 / Gaoming Liu
      刘兵 / Bing Liu
◎制  片  人 万玛才旦 / Pema Tseden
      耿军 / Jun Geng
      黄旭峰 / Xufeng Huang
      王磊 / Lei Wang
      杨向华 / Xianghua Yang
      梁颖 / Ying Liang
◎音  乐 罗可居 / Keju Luo
◎摄  影 大塚龙治 / Ryuji Otsuka
◎剪  辑 廖庆松 / Ching-Song Liao
      宋冰 / Bing Song
◎音  效 娄堃 / Kun Lou
◎其  它 黄妍 / Yan Huang
      刘天 / Hommer

◎标  签 南方新浪潮 | 恋爱 | 文艺 | 青春 | FIRST | 艺术 | 社会

◎获奖情况 

  第44届香港国际电影节 (2020)
  新秀电影比赛 火鸟电影大奖(华语)(提名) 高鸣

  第21届全州国际电影节 (2020)
  国际电影比赛单元 评审团大奖 高鸣
  国际电影比赛单元 最好影片(提名) 高鸣

  第14届FIRST青年电影展 (2020)
  比赛 最好剧情长片(提名) 高鸣

  1. General
  2. Complete name : 回南天.Damp.Season.2020.60FPS.2160p.WEB-DL.H265.10bit.AAC-TAG.mp4
  3. Format : MPEG-4
  4. Format profile : Base Media
  5. Codec ID : isom (isom/iso2/mp41)
  6. File size : 18.7 GiB
  7. Duration : 1 h 46 min
  8. Overall bit rate : 25.1 Mb/s
  9. Writing application : OurTV Multimedia Platform

  10. Video
  11. ID : 1
  12. Format : HEVC
  13. Format/Info : High Efficiency Video Coding
  14. Format profile : Main [email]10@L5.1[/email]@Main
  15. Codec ID : hev1
  16. Codec ID/Info : High Efficiency Video Coding
  17. Duration : 1 h 46 min
  18. Bit rate : 24.9 Mb/s
  19. Width : 3 840 pixels
  20. Height : 2 016 pixels
  21. Display aspect ratio : 1.905
  22. Frame rate mode : Constant
  23. Frame rate : 60.000 FPS
  24. Color space : YUV
  25. Chroma subsampling : 4:2:0
  26. Bit depth : 10 bits
  27. Bits/(Pixel*Frame) : 0.054
  28. Stream size : 18.6 GiB (99%)
  29. Color range : Limited
  30. Color primaries : BT.709
  31. Transfer characteristics : BT.709
  32. Matrix coefficients : BT.709
  33. Codec configuration box : hvcC

  34. Audio
  35. ID : 2
  36. Format : AAC LC
  37. Format/Info : Advanced Audio Codec Low Complexity
  38. Codec ID : mp4a-40-2
  39. Duration : 1 h 46 min
  40. Bit rate mode : Constant
  41. Bit rate : 192 kb/s
  42. Channel(s) : 2 channels
  43. Channel layout : L R
  44. Sampling rate : 44.1 kHz
  45. Frame rate : 43.066 FPS (1024 SPF)
  46. Compression mode : Lossy
  47. Stream size : 147 MiB (1%)
  48. Default : Yes
  49. Alternate group : 1
复制代码
回南天 [国语/内嵌简中][4KHQ高码/60FPS].Damp.Season.2020.60FPS.2160p.WEB-DL.H265.10bit.AAC-TAG 18.72GB-1.jpg
回南天 [国语/内嵌简中][4KHQ高码/60FPS].Damp.Season.2020.60FPS.2160p.WEB-DL.H265.10bit.AAC-TAG 18.72GB-1.png
回南天 [国语/内嵌简中][4KHQ高码/60FPS].Damp.Season.2020.60FPS.2160p.WEB-DL.H265.10bit.AAC-TAG 18.72GB-2.png
回南天 [国语/内嵌简中][4KHQ高码/60FPS].Damp.Season.2020.60FPS.2160p.WEB-DL.H265.10bit.AAC-TAG 18.72GB-3.png






新种保举请利用qBittorrent,utorrent,transmission等标准BT软件下载!以获得最快速度。请大师下载完成后不要封闭下载软件 进献出自己的上传带宽 人报酬我 我为大家!









回复

使用道具 举报

蓝光币
335
发表于 2024-5-18 23:01:43 | 显示全部楼层
感谢分享~~~~~
回复

使用道具 举报

蓝光币
934
发表于 2024-5-19 00:01:55 | 显示全部楼层
楼主发贴辛苦了,谢谢楼主分享!我觉得蓝光电影网是注册对了!
回复

使用道具 举报

蓝光币
276
发表于 2024-5-19 08:32:59 | 显示全部楼层
盖楼盖楼
回复

使用道具 举报

蓝光币
862
发表于 2024-5-19 16:02:12 | 显示全部楼层

这个帖子不回对不起自己!我想我是一天也不能离开蓝光电影网。
回复

使用道具 举报

蓝光币
104
发表于 2024-5-21 08:54:26 | 显示全部楼层
这个帖子不回对不起自己!我想我是一天也不能离开蓝光电影网。
回复

使用道具 举报

蓝光币
3
发表于 2024-5-21 16:35:51 | 显示全部楼层

楼主太厉害了!楼主,电影应该很好看我觉得蓝光电影网真是个好地方!
回复

使用道具 举报

蓝光币
7
发表于 2024-6-3 11:26:30 | 显示全部楼层
谢谢分享
回复

使用道具 举报

懒得打字嘛,点击右侧快捷回复 【右侧内容,后台自定义】
您需要登录后才可以回帖 登录 | 立即加入

本版积分规则

Archiver| |网站地图

Copyright © 2024 Comsenz Inc. Powered by 蓝光电影网

本站内容由用户自主分享和转载自互联网,转载目的在于传递更多信息,并不代表本网赞同其观点和对其真实性负责。

如有侵权、违反国家法律政策行为,请联系我们,我们会第一时间及时清除和处理!

举报反馈邮箱:4k1080.com@gmail.com

快速回复 返回顶部 返回列表