找回密码

查看: 270|回复: 6

[UHD.HEVC] 无间道 [法版4K原盘DIY国粤配简繁中字/原生粤语DIY港版国语5.1/菜单汉化].Infernal Affairs.2002.FRA.V2.HDR.UHD.BluRay.2160p.HEVC.DTS-HD.MA.5.1-TAG 52.98GB

[复制链接]
蓝光币
1917
发表于 7 天前 | 显示全部楼层 |阅读模式

V2版本修复部分播放机没法挑选说话题目,优化字幕位置,删除过剩的法语音轨和字幕


无间道 [法版4K原盘DIY国粤配简繁中字/原生粤语DIY港版国语5.1/菜单汉化].Infernal Affairs.2002.FRA.V2.HDR.UHD.BluRay.2160p.HEVC.DTS-HD.MA.5.1-TAG 52.98GB-1.jpg
◎译  名 无间道 / Infernal Affairs / Mou gaan dou
◎片  名 無間道
◎年  代 2002
◎产  地 中国香港
◎类  别 剧情 / 惊悚 / 犯罪
◎语  言 粤语
◎上映日期 2002-12-12(中国香港) / 2003-09-05(中国大陆)
◎IMDb评分  8.0/10 from 126,604 users
◎IMDb链接  https://www.imdb.com/title/tt0338564/
◎豆瓣评分 9.3/10 from 1,320,427 users
◎豆瓣链接 https://movie.douban.com/subject/1307914/
◎片  长 101分钟
◎导  演 刘伟强 / Andrew Lau
      麦兆辉 / Alan Mak
◎演  员 刘德华 / Andy Lau (饰 刘建明)
      梁朝伟 / Tony Leung Chiu Wai (饰 陈永仁)
      黄秋生 / Anthony Wong Chau-Sang (饰 黄志诚)
      曾志伟 / Eric Tsang (饰 韩琛)
      陈慧琳 / Kelly Chen (饰 李心儿)
      郑秀文 / Sammi Cheng (饰 Mary)
      陈冠希 / Edison Chen (饰 少年刘建明)
      余文乐 / Shawn Yue (饰 少年陈永仁)
      萧亚轩 / Elva Hsiao (饰 May)
      林家栋 / Ka Tung Lam (饰 大B)
      吴廷烨 / Berg Ng (饰 张Sir)
      林迪安 / Dion Lam (饰 迪比亚路)
      尹志强 / Chi Keung Wan (饰 梁警司)
      许金峰 / Hui Kam Fung (饰 警校校长)
      何华超 / Tony Ho (饰 疑犯)
      利沙华 / Courtney Wu (饰 Hi-Fi铺老板)
      区轩玮 / John Au
      李天翔 / Eric Li Tin Cheung (饰 孖八)
      黄燕强 / Wong Yin Keung
      姚文基 / Man-kei Yiu
      余世腾 / Yu Sai-Tang
      苏伟南 / Wai-Nam So (饰 韩琛手下)
      黎志伟 / Chi-Wai Lai
      梁皓楷 / Jerry Leung
      张旭燊 / Yuk-San Cheung
      袁伟豪 / Benjamin Yuen
      叶清 / Ching Ip
      洪智杰 / Osman Hung Chi-Kit  
      张艺 / Yi Zhang
      杨容莲 / Pauline Yang (饰 客串)
◎编  剧 麦兆辉 / Alan Mak
      庄文强 / Felix Chong
◎制  片  人 刘伟强 / Andrew Lau
      黄斌 / Ronald Wong
      庄澄 / John Chong
◎音  乐 陈名誉 / Kwong Wing Chan
      伍乐城 / Ronald Ng
      陈宏铭 / Hong-Ming Chen
◎摄  影 刘伟强 / Andrew Lau
      黎耀辉 / Yiu-Fai Lai
◎剪  辑 彭发 / Danny Pang
      彭正熙 / Curran Pang
◎美  术 赵崇邦 / Sung Pong Choo
      王晶晶 / Wong Ching Ching
◎服  装 利碧君 / Pik Kwan Lee
◎副  导  演 陈伟雄 / Phat Chan
◎视觉殊效 杜可风 / Christopher Doyle
      黄宏达 / Victor Wong
      黄宏显 / Eddy Wong
      林伟文 / Terry Lam
◎行动特技 林迪安 / Dion Lam
◎其  它 黄志明 / Wong Chi-Ming
      曾景祥 / Kinson Tsang
      吕丽桦 / Olivia Lui Lai-wah
◎简  介 
  1991年,香港黑帮三合会会员刘健明(刘德华)服从老迈韩琛(曾志伟)的吩咐,加入差人军队成为黑帮卧底,韩琛许诺刘健明会帮其在七年后提升为见习督察。1992年,差人练习黉舍优异学员陈永仁(梁朝伟)被下级要求深入到三合会做卧底,终纵方针是成为韩琛身旁的红人。2002年,两人都不负重望,也都身背重压,刘健明渐想成为一个实在的好人,陈永仁则盼着尽快回归差人身份。
  重案组从陈永仁手中得悉一批毒品买卖情报,锁紧方针人物韩琛,没料情报被刘健明泄出,双方行动均告失利。但此事将双方均有卧底的究竟表露,激发双方高层断根内鬼的决心。命运悬殊又类似的刘健明和陈永仁起头在无间道的旅程中接管严重考验。
◎获奖情况 
  第40届台北金马影展 (2003)
  金马奖 最好剧情片
  金马奖 最好导演 刘伟强,麦兆辉
  金马奖 最好男配角 梁朝伟
  金马奖 最好男配角(提名) 刘德华
  金马奖 最好男配角 黄秋生
  金马奖 最好原著剧本(提名) 庄文强,麦兆辉
  金马奖 最好摄影(提名) 黎耀辉,刘伟强
  金马奖 最好美术设想(提名) 王晶晶,赵崇邦
  金马奖 最好行动设想(提名) 林迪安
  金马奖 最好剪辑(提名) 彭发,彭正熙
  金马奖 最好音效 曾景祥
  金马奖 最好视觉结果(提名) 杜可风
  观众票选最好影片
  第22届香港电影金像奖 (2003)
  最好电影 刘伟强
  最好导演 刘伟强,麦兆辉
  最好编剧 庄文强,麦兆辉
  最好男配角 梁朝伟
  最好男配角(提名) 刘德华
  最好男配角 黄秋生
  最好男配角(提名) 曾志伟
  最好摄影(提名) 黎耀辉,刘伟强
  最好剪接 彭发,彭正熙
  最好打扮外型设想(提名) 利碧君
  最好行动设想(提名) 林迪安
  最好原创电影音乐(提名) 陈名誉
  最好原创电影歌曲 伍乐城
  最好声响结果(提名) 曾景祥
  最好视觉结果(提名) 杜可风
  第10届华语电影传媒大奖 (2010)
  新世纪十年十佳电影
  第3届华语电影传媒大奖 (2003)
  最好男演员 黄秋生
  最受接待华语电影
  最好电影(提名)

  1. DISC INFO:

  2. Disc Label: BDAREA
  3. Disc Size: 56,880,930,804 bytes
  4. Protection: AACS2
  5. Extras: Ultra HD
  6. BDInfo: 0.7.5.5

  7. PLAYLIST REPORT:

  8. Name: 00003.MPLS
  9. Length: 1:40:59.375 (h:m:s.ms)
  10. Size: 56,123,067,840 bytes
  11. Total Bitrate: 74.10 Mbps

  12. VIDEO:

  13. Codec Bitrate Description
  14. ----- ------- -----------
  15. MPEG-H HEVC Video 66902 kbps 2160p / 24 fps / 16:9 / Main 10 @ Level 5.1 @ High / 10 bits / HDR10 / BT.2020

  16. AUDIO:

  17. Codec Language Bitrate Description
  18. ----- -------- ------- -----------
  19. DTS-HD Master Audio Chinese 3041 kbps 5.1 / 48 kHz / 3041 kbps / 24-bit (DTS Core: 5.1 / 48 kHz / 1509 kbps / 24-bit)
  20. Dolby Digital Audio Chinese 640 kbps 5.1 / 48 kHz / 640 kbps / DN -31dB

  21. SUBtitleS:

  22. Codec Language Bitrate Description
  23. ----- -------- ------- -----------
  24. Presentation Graphics Chinese 17.826 kbps 粤语简体
  25. Presentation Graphics Chinese 18.308 kbps 粤语繁体
  26. Presentation Graphics Chinese 20.311 kbps 国语简体
  27. Presentation Graphics Chinese 20.897 kbps 国语繁体

  28. FILES:

  29. Name Time In Length Size Total Bitrate
  30. ---- ------- ------ ---- -------------
  31. 00006.M2TS 0:00:00.000 0:00:10.000 23,322,432 18,581
  32. 00009.M2TS 0:00:10.000 1:40:48.375 56,099,727,168 74,201
  33. 00001.M2TS 1:40:58.375 0:00:01.000 18,240 140
复制代码
无间道 [法版4K原盘DIY国粤配简繁中字/原生粤语DIY港版国语5.1/菜单汉化].Infernal Affairs.2002.FRA.V2.HDR.UHD.BluRay.2160p.HEVC.DTS-HD.MA.5.1-TAG 52.98GB-2.jpg
无间道 [法版4K原盘DIY国粤配简繁中字/原生粤语DIY港版国语5.1/菜单汉化].Infernal Affairs.2002.FRA.V2.HDR.UHD.BluRay.2160p.HEVC.DTS-HD.MA.5.1-TAG 52.98GB-3.png
无间道 [法版4K原盘DIY国粤配简繁中字/原生粤语DIY港版国语5.1/菜单汉化].Infernal Affairs.2002.FRA.V2.HDR.UHD.BluRay.2160p.HEVC.DTS-HD.MA.5.1-TAG 52.98GB-4.png
无间道 [法版4K原盘DIY国粤配简繁中字/原生粤语DIY港版国语5.1/菜单汉化].Infernal Affairs.2002.FRA.V2.HDR.UHD.BluRay.2160p.HEVC.DTS-HD.MA.5.1-TAG 52.98GB-5.png





新种保举请利用qBittorrent,utorrent,transmission等标准BT软件下载!以获得最快速度。请大师下载完成后不要封闭下载软件 进献出自己的上传带宽 人报酬我 我为大家!








回复

使用道具 举报

蓝光币
387
发表于 7 天前 | 显示全部楼层
楼主发贴辛苦了,谢谢楼主分享!我觉得蓝光电影网是注册对了!
回复

使用道具 举报

蓝光币
792
发表于 7 天前 | 显示全部楼层
楼主发贴辛苦了,谢谢楼主分享!我觉得蓝光电影网是注册对了!
回复

使用道具 举报

蓝光币
69
发表于 7 天前 | 显示全部楼层

感谢楼主的无私分享!要想蓝光电影网好 就靠你我他
回复

使用道具 举报

蓝光币
570
发表于 7 天前 | 显示全部楼层

既然你诚信诚意的推荐了,那我就勉为其难的看看吧!蓝光电影网不走平凡路。
回复

使用道具 举报

蓝光币
842
发表于 5 天前 | 显示全部楼层
楼主发贴辛苦了,谢谢楼主分享!我觉得蓝光电影网是注册对了!
回复

使用道具 举报

蓝光币
106
发表于 昨天 21:39 | 显示全部楼层
楼主发贴辛苦了,谢谢楼主分享!我觉得蓝光电影网是注册对了!
回复

使用道具 举报

懒得打字嘛,点击右侧快捷回复 【右侧内容,后台自定义】
您需要登录后才可以回帖 登录 | 立即加入

本版积分规则

Archiver| |网站地图

Copyright © 2024 Comsenz Inc. Powered by 蓝光电影网

本站内容由用户自主分享和转载自互联网,转载目的在于传递更多信息,并不代表本网赞同其观点和对其真实性负责。

如有侵权、违反国家法律政策行为,请联系我们,我们会第一时间及时清除和处理!

举报反馈邮箱:4k1080.com@gmail.com

快速回复 返回顶部 返回列表