找回密码

查看: 458|回复: 16

[2160p-WEB] 功夫熊猫4 [国英多音轨/中文字幕/特效字幕].Kung.Fu.Panda.4.2024.2160p.iTunes.WEB-DL.DDP.5.1.Atmos.H.265-TAG 9.27GB

[复制链接]
蓝光币
1917
发表于 7 天前 | 显示全部楼层 |阅读模式
功夫熊猫4 [国英多音轨/中笔墨幕/殊效字幕].Kung.Fu.Panda.4.2024.2160p.iTunes.WEB-DL.DDP.5.1.Atmos.H.265-TAG 9.27GB-1.png

◎标  题 功夫熊猫4
◎片  名 Kung Fu Panda 4
◎年  代 2024
◎产  地 美国 / 中国大陆
◎类  别 笑剧 / 行动 / 动画 / 奇异 / 冒险
◎语  言 英语
◎上映日期 2024-03-22(中国大陆) / 2024-03-08(美国)
◎IMDb链接 https://www.imdb.com/title/tt21692408/
◎豆瓣链接 https://movie.douban.com/subject/26715496/
◎片  长 94分钟
◎导  演 迈克·米切尔 Mike Mitchell
      斯蒂芬妮·斯汀 Stephanie Stine
◎编  剧 乔纳森·阿贝尔 Jonathan Aibel
      格伦·伯杰 Glenn Berger
◎演  员 杰克·布莱克 Jack Black
      奥卡菲娜 Awkwafina
      维奥拉·戴维斯 Viola Davis
      达斯汀·霍夫曼 Dustin Hoffman
      吴汉章 James Hong
      布莱恩·克兰斯顿 Bryan Cranston
      伊恩·麦柯肖恩 Ian McShane
      关继威 Ke Huy Quan
      钱信伊 Ronny Chieng
      洛瑞·坦·齐恩 Lori Tan Chinn
      塞塞·瓦伦蒂娜 Cece Valentina
      黄渤 Bo Huang
      杨幂 Mi Yang
      蒋欣 Xin Jiang

◎简  介
    神龙大侠阿宝(杰克·布莱克 Jack Black 配音)再度归来,要被师父(达斯汀·霍夫曼 Dustin Hoffman 配音)强行进阶修行。系列全新最强反派魅影妖后(维奥拉·戴维斯 Viola Davis 配音)退场,奥秘莫测的她可以幻化成每一个阿宝的昔日宿敌。此次阿宝又结识了小真(奥卡菲娜 Awkwafina 配音)等新伙伴,并将一同开启这场冒险旅程。

  1. General
  2. Unique ID : 185606905310794363207473885242543832234 (0x8BA296F56B7EAFD548DC1F139ADBFCAA)
  3. Complete name : 功夫熊猫4.Kung.Fu.Panda.4.2024.2160p.iTunes.WEB-DL.DDP.5.1.Atmos.H.265-TAG.mkv
  4. Duration : 1 h 33 min
  5. Overall bit rate : 14.2 Mb/s

  6. Video
  7. ID : 1
  8. Format : HEVC
  9. Format/Info : High Efficiency Video Coding
  10. Format profile : Main 10@L5@High
  11. Codec ID : V_MPEGH/ISO/HEVC
  12. Duration : 1 h 33 min
  13. Bit rate : 12.3 Mb/s
  14. Width : 3 840 pixels
  15. Height : 2 160 pixels
  16. Display aspect ratio : 16:9
  17. Frame rate mode : Constant
  18. Frame rate : 23.976 (24000/1001) FPS
  19. Color space : YUV
  20. Chroma subsampling : 4:2:0
  21. Bit depth : 10 bits
  22. Bits/(Pixel*Frame) : 0.062
  23. Stream size : 8.04 GiB (87%)
  24. Default : Yes
  25. Forced : No
  26. Color range : Limited
  27. Color primaries : BT.709
  28. Transfer characteristics : BT.709
  29. Matrix coefficients : BT.709

  30. Audio #1
  31. ID : 2
  32. Format : E-AC-3 JOC
  33. Format/Info : Enhanced AC-3 with Joint Object Coding
  34. Commercial name : Dolby Digital Plus with Dolby Atmos
  35. Codec ID : A_EAC3
  36. Duration : 1 h 33 min
  37. Bit rate mode : Constant
  38. Bit rate : 768 kb/s
  39. Channel(s) : 6 channels
  40. Channel layout : L R C LFE Ls Rs
  41. Sampling rate : 48.0 kHz
  42. Frame rate : 31.250 FPS (1536 SPF)
  43. Bit depth : 32 bits
  44. Compression mode : Lossy
  45. Stream size : 514 MiB (5%)
  46. Language : English
  47. Service kind : Complete Main
  48. Default : Yes
  49. Forced : No
  50. Complexity index : 16
  51. Number of dynamic objects : 15
  52. Bed channel count : 1 channel
  53. Bed channel configuration : LFE

  54. Audio #2
  55. ID : 3
  56. Format : AC-3
  57. Format/Info : Audio Coding 3
  58. Commercial name : Dolby Digital
  59. Codec ID : A_AC3
  60. Duration : 1 h 33 min
  61. Bit rate mode : Constant
  62. Bit rate : 384 kb/s
  63. Channel(s) : 2 channels
  64. Channel layout : L R
  65. Sampling rate : 48.0 kHz
  66. Frame rate : 31.250 FPS (1536 SPF)
  67. Compression mode : Lossy
  68. Stream size : 257 MiB (3%)
  69. Title : 公映国配
  70. Language : Chinese
  71. Service kind : Complete Main
  72. Default : Yes
  73. Forced : No

  74. Text #1
  75. ID : 4
  76. Format : PGS
  77. Muxing mode : zlib
  78. Codec ID : S_HDMV/PGS
  79. Codec ID/Info : Picture based subtitle format used on BDs/HD-DVDs
  80. Duration : 1 h 27 min
  81. Bit rate : 323 kb/s
  82. Frame rate : 0.950 FPS
  83. Count of elements : 5002
  84. Stream size : 203 MiB (2%)
  85. Title : 简英殊效
  86. Language : Chinese
  87. Default : Yes
  88. Forced : No

  89. Text #2
  90. ID : 5
  91. Format : PGS
  92. Muxing mode : zlib
  93. Codec ID : S_HDMV/PGS
  94. Codec ID/Info : Picture based subtitle format used on BDs/HD-DVDs
  95. Duration : 1 h 27 min
  96. Bit rate : 324 kb/s
  97. Frame rate : 0.950 FPS
  98. Count of elements : 5002
  99. Stream size : 203 MiB (2%)
  100. Title : 繁英殊效
  101. Language : Chinese
  102. Default : No
  103. Forced : No

  104. Text #3
  105. ID : 6
  106. Format : PGS
  107. Muxing mode : zlib
  108. Codec ID : S_HDMV/PGS
  109. Codec ID/Info : Picture based subtitle format used on BDs/HD-DVDs
  110. Duration : 1 h 27 min
  111. Bit rate : 303 kb/s
  112. Frame rate : 0.950 FPS
  113. Count of elements : 5002
  114. Stream size : 190 MiB (2%)
  115. Title : 简体殊效
  116. Language : Chinese
  117. Default : No
  118. Forced : No

  119. Text #4
  120. ID : 7
  121. Format : PGS
  122. Muxing mode : zlib
  123. Codec ID : S_HDMV/PGS
  124. Codec ID/Info : Picture based subtitle format used on BDs/HD-DVDs
  125. Duration : 1 h 27 min
  126. Bit rate : 303 kb/s
  127. Frame rate : 0.950 FPS
  128. Count of elements : 5002
  129. Stream size : 190 MiB (2%)
  130. Title : 繁體殊效
  131. Language : Chinese
  132. Default : No
  133. Forced : No

  134. Text #5
  135. ID : 8
  136. Format : UTF-8
  137. Codec ID : S_TEXT/UTF8
  138. Codec ID/Info : UTF-8 Plain Text
  139. Duration : 1 h 23 min
  140. Bit rate : 70 b/s
  141. Frame rate : 0.253 FPS
  142. Count of elements : 1272
  143. Stream size : 43.3 KiB (0%)
  144. Language : Spanish
  145. Default : No
  146. Forced : No

  147. Text #6
  148. ID : 9
  149. Format : UTF-8
  150. Codec ID : S_TEXT/UTF8
  151. Codec ID/Info : UTF-8 Plain Text
  152. Duration : 1 h 32 min
  153. Bit rate : 63 b/s
  154. Frame rate : 0.228 FPS
  155. Count of elements : 1261
  156. Stream size : 43.1 KiB (0%)
  157. Language : French
  158. Default : No
  159. Forced : No

  160. Menu
  161. 00:00:00.000 : en:Chapter 01
  162. 00:02:37.073 : en:Chapter 02
  163. 00:06:21.881 : en:Chapter 03
  164. 00:12:24.911 : en:Chapter 04
  165. 00:19:27.584 : en:Chapter 05
  166. 00:25:28.737 : en:Chapter 06
  167. 00:33:32.512 : en:Chapter 07
  168. 00:40:16.708 : en:Chapter 08
  169. 00:47:39.818 : en:Chapter 09
  170. 00:52:12.340 : en:Chapter 10
  171. 00:58:14.619 : en:Chapter 11
  172. 01:04:06.596 : en:Chapter 12
  173. 01:12:17.420 : en:Chapter 13
  174. 01:16:51.903 : en:Chapter 14
  175. 01:22:25.945 : en:Chapter 15
  176. 01:24:48.880 : en:Chapter 16
复制代码


功夫熊猫4 [国英多音轨/中笔墨幕/殊效字幕].Kung.Fu.Panda.4.2024.2160p.iTunes.WEB-DL.DDP.5.1.Atmos.H.265-TAG 9.27GB-2.png
功夫熊猫4 [国英多音轨/中笔墨幕/殊效字幕].Kung.Fu.Panda.4.2024.2160p.iTunes.WEB-DL.DDP.5.1.Atmos.H.265-TAG 9.27GB-3.png
功夫熊猫4 [国英多音轨/中笔墨幕/殊效字幕].Kung.Fu.Panda.4.2024.2160p.iTunes.WEB-DL.DDP.5.1.Atmos.H.265-TAG 9.27GB-4.png
功夫熊猫4 [国英多音轨/中笔墨幕/殊效字幕].Kung.Fu.Panda.4.2024.2160p.iTunes.WEB-DL.DDP.5.1.Atmos.H.265-TAG 9.27GB-5.png
功夫熊猫4 [国英多音轨/中笔墨幕/殊效字幕].Kung.Fu.Panda.4.2024.2160p.iTunes.WEB-DL.DDP.5.1.Atmos.H.265-TAG 9.27GB-6.png
功夫熊猫4 [国英多音轨/中笔墨幕/殊效字幕].Kung.Fu.Panda.4.2024.2160p.iTunes.WEB-DL.DDP.5.1.Atmos.H.265-TAG 9.27GB-7.png





新种保举请利用qBittorrent,utorrent,transmission等标准BT软件下载!以获得最快速度。请大师下载完成后不要封闭下载软件 进献出自己的上传带宽 人报酬我 我为大家!







回复

使用道具 举报

蓝光币
123
发表于 7 天前 | 显示全部楼层
感谢楼主分享
回复

使用道具 举报

蓝光币
72
发表于 7 天前 | 显示全部楼层
感谢楼主分享
回复

使用道具 举报

蓝光币
164
发表于 7 天前 | 显示全部楼层

楼主太厉害了!楼主,电影应该很好看我觉得蓝光电影网真是个好地方!
回复

使用道具 举报

蓝光币
59
发表于 7 天前 | 显示全部楼层
国语的!太棒了!
回复

使用道具 举报

蓝光币
115
发表于 7 天前 | 显示全部楼层
多谢版主!
回复

使用道具 举报

蓝光币
466
发表于 7 天前 | 显示全部楼层

其实我一直觉得楼主的品味不错!呵呵!蓝光电影网太棒了!
回复

使用道具 举报

蓝光币
2125
发表于 7 天前 | 显示全部楼层
不错,收下了。
回复

使用道具 举报

蓝光币
387
发表于 7 天前 | 显示全部楼层
楼主发贴辛苦了,谢谢楼主分享!我觉得蓝光电影网是注册对了!
回复

使用道具 举报

蓝光币
3
发表于 7 天前 | 显示全部楼层
楼主发贴辛苦了,谢谢楼主分享!开心收下了
回复

使用道具 举报

懒得打字嘛,点击右侧快捷回复 【右侧内容,后台自定义】
您需要登录后才可以回帖 登录 | 立即加入

本版积分规则

Archiver| |网站地图

Copyright © 2024 Comsenz Inc. Powered by 蓝光电影网

本站内容由用户自主分享和转载自互联网,转载目的在于传递更多信息,并不代表本网赞同其观点和对其真实性负责。

如有侵权、违反国家法律政策行为,请联系我们,我们会第一时间及时清除和处理!

举报反馈邮箱:4k1080.com@gmail.com

快速回复 返回顶部 返回列表