找回密码

查看: 618|回复: 10

[2160p-WEB] 大闹天宫 [超清修复版 国语 无字幕].The.Monkey.King.1961.WEB-DL.4K.H264 AAC-TAG 6.39GB

[复制链接]
蓝光币
1917
发表于 2024-5-12 18:20:20 | 显示全部楼层 |阅读模式
大闹天宫 [超清修复版 国语 无字幕].The.Monkey.King.1961.WEB-DL.4K.H264 AAC-TAG 6.39GB-1.jpg
◎译  名 Havoc in Heaven / 大闹天宫 高低集 / Uproar in Heaven / The Monkey King
◎片  名 大闹天宫
◎年  代 1961
◎产  地 中国大陆
◎类  别 剧情 / 动画 / 奇异 / 古装
◎语  言 汉语普通话
◎上映日期 1961(中国大陆) / 1964(中国大陆) / 1978(中国大陆)
◎IMDb评星  ★★★★★★★★☆☆
◎IMDb评分  8.2/10 from 1,987 users
◎IMDb链接  https://www.imdb.com/title/tt0059855/
◎豆瓣评星 ★★★★✦
◎豆瓣评分 9.4/10 from 373,665 users
◎豆瓣链接 https://movie.douban.com/subject/1418019/
◎片  长 113分钟 / 44分钟(上集) / 69分钟(下集) / 84分钟(40周年数念版)
◎导  演 万籁鸣 / Laiming Wan
◎演  员 邱岳峰 / Yuefeng Qiu | 配 齐天大圣
      富润生 / Runsheng Fu | 配 玉皇大帝
      毕克 / Ke Bi | 配 东海龙王/地盘公公
      尚华 / Hua Shang | 配 太白金星
      于鼎 / Ding Yu | 配 二郎神/托塔天王/马天君/持国天王
      李梓 / Zi Li | 配 仙女
      刘广宁 / Guangning Liu | 配 仙女
◎编  剧 李克弱 / Keruo Li
      万籁鸣 / Laiming Wan
      吴承恩 / Cheng‘en Wu
◎音  乐 吴应炬 / Yingju Wu
      张鑫海 / Xinhai Zhang
      陈传熙 / Chuanxi Chen
◎摄  影 段孝萱 / Xiaoxuan Duan
      王世荣 / Shirong Wang
◎剪  辑 许珍珠 / Zhenzhu Xu
◎副  导  演 唐澄 / Cheng  Tang
◎动  画 张光宇 / Guangyu Zhang
      方澎年 / Pengnian Fang
      梁力克 / Like Liang
      浦家祥 / Jiaxiang Pu
      葛桂云 / Guiyun Ge
      段浚 / Jun Duan
      严定宪 / Dingxian Yan
      陆青 / Qing Lu
      林文肖 / Wenxiao Lin
      高阳 / Yang Gao
      秦一真 / Yizhen Qin

◎简  介 

  话说在东土傲来国有一座花果山,山上有一尊石猴吸收日精月华化身为一只神猴(邱岳峰 音),管辖着山中的山公猴孙。为求得一件趁心的宝贝,神猴孙大圣潜入龙宫,倔强求来大禹治水时的定海神针快意金箍棒。东海龙王(毕克 音)心有不甘,因而上天将此事诉诸玉帝(富润生 音)。玉皇大帝号令太白金星(尚华 音)下界招抚,许以爵位。不知有诈的孙大圣怅然前往,却发现只是负责养马的弼马温。得知被骗的猴王反下天庭,与天兵天将在花果山展开大战……
  本片按照古典名著《西游记》中的故事改编,前后用时4年创作,并荣获1962年捷克斯洛伐克卡罗维发利国际电影节短片出格奖、1978年英国伦敦国际电影节年度精采电影奖、1982年厄瓜多尔第四届国际儿童电影节三等奖、第二届中国电影“百花奖”最好美术片奖。

◎幕后揭秘

  影片《大闹天宫》为高低两集的美术动画电影,别离完成于1961年和1964年,按照古典文学名著《西游记》前七回改编,将孙悟空这一中国式的神话豪杰,活泼地再现于银幕。影片色彩浓厚,外型奇异,排场宏伟,将神佛等在传统外型的根本上做了夸张处置,突出了形象的装潢性和性情的典型性。该片经过怪异的艺术构想和表示手法,使原著的思惟性和艺术性获得充实展现。影片公映后,在国际上发生庞大颤动,反响非凡,并前后荣获第十三届卡罗维发利国际电影节短片出格奖、第二十二届伦敦国际电影节最好影片奖、厄瓜多尔第五届基多国际儿童电影节三等奖、葡萄牙第十二届菲格腊达福兹国际电影节评委奖、中国第二届电影百花奖最好美术片奖。该片作为中国动画片的典范影响了几代人,是中国动画史上的丰碑。

  1. General
  2. Complete name : The Monkey King 1961 WEB-DL 4K H264 AAC-TAG.mp4
  3. Format : MPEG-4
  4. Format profile : Base Media
  5. Codec ID : isom (isom/iso2/avc1/mp41)
  6. File size : 6.39 GiB
  7. Duration : 1 h 52 min
  8. Overall bit rate : 8 134 kb/s

  9. Video
  10. ID : 1
  11. Format : AVC
  12. Format/Info : Advanced Video Codec
  13. Format profile : [email]High@L5.1[/email]
  14. Format settings : CABAC / 5 Ref Frames
  15. Format settings, CABAC : Yes
  16. Format settings, Reference fra : 5 frames
  17. Codec ID : avc1
  18. Codec ID/Info : Advanced Video Coding
  19. Duration : 1 h 52 min
  20. Bit rate : 7 999 kb/s
  21. Width : 2 936 pixels
  22. Height : 2 160 pixels
  23. Display aspect ratio : 4:3
  24. Frame rate mode : Constant
  25. Frame rate : 24.000 FPS
  26. Color space : YUV
  27. Chroma subsampling : 4:2:0
  28. Bit depth : 8 bits
  29. Scan type : Progressive
  30. Bits/(Pixel*Frame) : 0.053
  31. Stream size : 6.29 GiB (98%)
  32. Color range : Limited
  33. Color primaries : BT.709
  34. Transfer characteristics : BT.709
  35. Matrix coefficients : BT.709
  36. Codec configuration box : avcC

  37. Audio
  38. ID : 2
  39. Format : AAC LC
  40. Format/Info : Advanced Audio Codec Low Complexity
  41. Codec ID : mp4a-40-2
  42. Duration : 1 h 52 min
  43. Duration_LastFrame : -18 ms
  44. Bit rate mode : Constant
  45. Bit rate : 128 kb/s
  46. Channel(s) : 2 channels
  47. Channel layout : L R
  48. Sampling rate : 44.1 kHz
  49. Frame rate : 43.066 FPS (1024 SPF)
  50. Compression mode : Lossy
  51. Stream size : 103 MiB (2%)
  52. Default : Yes
  53. Alternate group : 1
复制代码
大闹天宫 [超清修复版 国语 无字幕].The.Monkey.King.1961.WEB-DL.4K.H264 AAC-TAG 6.39GB-2.png
大闹天宫 [超清修复版 国语 无字幕].The.Monkey.King.1961.WEB-DL.4K.H264 AAC-TAG 6.39GB-3.png
大闹天宫 [超清修复版 国语 无字幕].The.Monkey.King.1961.WEB-DL.4K.H264 AAC-TAG 6.39GB-4.png





新种保举请利用qBittorrent,utorrent,transmission等标准BT软件下载!以获得最快速度。请大师下载完成后不要封闭下载软件 进献出自己的上传带宽 人报酬我 我为大家!








回复

使用道具 举报

蓝光币
319
发表于 2024-5-12 18:29:31 | 显示全部楼层

楼主太厉害了!楼主,电影应该很好看我觉得蓝光电影网真是个好地方!
回复

使用道具 举报

蓝光币
262
发表于 2024-5-13 08:53:04 | 显示全部楼层
楼主太厉害了!楼主,电影应该很好看我觉得蓝光电影网真是个好地方!
回复

使用道具 举报

蓝光币
100
发表于 2024-5-13 13:02:21 | 显示全部楼层

这个帖子不回对不起自己!我想我是一天也不能离开蓝光电影网。
回复

使用道具 举报

蓝光币
72
发表于 2024-5-13 18:39:39 | 显示全部楼层
这个帖子不回对不起自己!我想我是一天也不能离开蓝光电影网。
回复

使用道具 举报

蓝光币
123
发表于 2024-5-14 01:14:46 | 显示全部楼层
感谢楼主分享
回复

使用道具 举报

蓝光币
152
发表于 2024-5-14 09:18:57 | 显示全部楼层

我看不错噢 谢谢楼主!蓝光电影网越来越好!
回复

使用道具 举报

蓝光币
161
发表于 2024-5-14 13:02:58 | 显示全部楼层
好东西,这个要珍藏的!
回复

使用道具 举报

蓝光币
1072
发表于 2024-5-14 14:25:42 | 显示全部楼层

我看不错噢 谢谢楼主!蓝光电影网越来越好!
回复

使用道具 举报

蓝光币
327
发表于 7 天前 | 显示全部楼层
楼主发贴辛苦了,谢谢楼主分享!我觉得蓝光电影网是注册对了!
回复

使用道具 举报

懒得打字嘛,点击右侧快捷回复 【右侧内容,后台自定义】
您需要登录后才可以回帖 登录 | 立即加入

本版积分规则

Archiver| |网站地图

Copyright © 2024 Comsenz Inc. Powered by 蓝光电影网

本站内容由用户自主分享和转载自互联网,转载目的在于传递更多信息,并不代表本网赞同其观点和对其真实性负责。

如有侵权、违反国家法律政策行为,请联系我们,我们会第一时间及时清除和处理!

举报反馈邮箱:4k1080.com@gmail.com

快速回复 返回顶部 返回列表