找回密码

查看: 358|回复: 0

誓言无声 [全20集][国语中字].Shi.Yan.Wu.Sheng.2002.720p.WEB-DL.x264.AAC-TAG 10.63GB

[复制链接]
蓝光币
1917
发表于 2024-4-13 20:44:44 | 显示全部楼层 |阅读模式
誓词无声 [全20集][国语中字].Shi.Yan.Wu.Sheng.2002.720p.WEB-DL.x264.AAC-TAG 10.63GB-1.jpg


◎片  名 誓词无声
◎年  代 2002
◎产  地 中国大陆
◎类  别 剧情 / 悬疑
◎语  言 汉语普通话
◎上映日期 2002-08-27(中国大陆)
◎IMDb评分  0/10 from 0 users
◎IMDb链接  https://www.imdb.com/title/tt5305258/
◎豆瓣评分 8.6/10 from 2495 users
◎豆瓣链接 https://movie.douban.com/subject/2156655/
◎集  数 20
◎片  长 40分钟
◎导  演 毛卫宁 Weining Mao
◎编  剧 钱滨 Bin Qian / 易丹 Dan Yi
◎主  演 高明 Ming Gao
      赵峥 Zheng Zhao
      王海燕 Haiyan Wang
      周显欣 Xianxin Zhou
      寇振海 Zhenhai Kou
      李强 Qiang Li
      雷汉 Han Lei

◎标  签 谍战 | 国产电视剧 | 悬疑 | 看过的电视剧 | 电视剧 | 反特 | 华语标签 | 大陆

◎简  介

  20世纪60年月的一个冬季。奥秘返国加入我新型潜艇研讨制造的华裔专家,在途经香港时遭到台湾特务的追杀,几乎丧命。
  北京的反特务局立即分析情况,作出我内部存在台湾特务的判定,并敏捷展开观察。本以期待退休的许子风和年轻的反特务局职员骆战,以及原在香港的外派职员蓝美琴组成三人小组,接管了此项使命。

  1. General
  2. Complete name                            : \誓词无声\誓词无声第01集专家遭受意外突袭.mp4
  3. Format                                   : MPEG-4
  4. Format profile                           : Base Media
  5. Codec ID                                 : isom (isom/iso2/avc1/mp41)
  6. File size                                : 553 MiB
  7. Duration                                 : 46 min 40 s
  8. Overall bit rate                         : 1 657 kb/s
  9. Writing application                      : Lavf57.83.100

  10. Video
  11. ID                                       : 1
  12. Format                                   : AVC
  13. Format/Info                              : Advanced Video Codec
  14. Format profile                           : High@L4
  15. Format settings                          : CABAC / 5 Ref Frames
  16. Format settings, CABAC                   : Yes
  17. Format settings, Reference frames        : 5 frames
  18. Codec ID                                 : avc1
  19. Codec ID/Info                            : Advanced Video Coding
  20. Duration                                 : 46 min 40 s
  21. Bit rate                                 : 1 500 kb/s
  22. Width                                    : 1 280 pixels
  23. Height                                   : 1 024 pixels
  24. Display aspect ratio                     : 4:3
  25. Frame rate mode                          : Variable
  26. Frame rate                               : 25.000 FPS
  27. Minimum frame rate                       : 5.495 FPS
  28. Maximum frame rate                       : 25.000 FPS
  29. Color space                              : YUV
  30. Chroma subsampling                       : 4:2:0
  31. Bit depth                                : 8 bits
  32. Scan type                                : Progressive
  33. Bits/(Pixel*Frame)                       : 0.046
  34. Stream size                              : 508 MiB (92%)
  35. Writing library                          : x264 core 138 r2 9e941d1
  36. Encoding settings                        : cabac=1 / ref=5 / deblock=1:0:0 / analyse=0x3:0x113 / me=umh / subme=8 / psy=1 / psy_rd=1.00:0.00 / mixed_ref=1 / me_range=16 / chroma_me=1 / trellis=1 / 8x8dct=1 / cqm=0 / deadzone=21,11 / fast_pskip=1 / chroma_qp_offset=-2 / threads=12 / lookahead_threads=2 / sliced_threads=0 / nr=0 / decimate=1 / interlaced=0 / bluray_compat=0 / constrained_intra=0 / bframes=3 / b_pyramid=2 / b_adapt=2 / b_bias=0 / direct=3 / weightb=1 / open_gop=0 / weightp=2 / keyint=25 / keyint_min=13 / scenecut=40 / intra_refresh=0 / rc_lookahead=25 / rc=abr / mbtree=1 / bitrate=1500 / ratetol=1.0 / qcomp=0.60 / qpmin=0 / qpmax=69 / qpstep=4 / ip_ratio=1.40 / aq=1:1.00
  37. Codec configuration box                  : avcC

  38. Audio
  39. ID                                       : 2
  40. Format                                   : AAC LC
  41. Format/Info                              : Advanced Audio Codec Low Complexity
  42. Codec ID                                 : mp4a-40-2
  43. Duration                                 : 46 min 40 s
  44. Bit rate mode                            : Constant
  45. Bit rate                                 : 128 kb/s
  46. Channel(s)                               : 2 channels
  47. Channel layout                           : L R
  48. Sampling rate                            : 48.0 kHz
  49. Frame rate                               : 46.875 FPS (1024 SPF)
  50. Compression mode                         : Lossy
  51. Stream size                              : 42.7 MiB (8%)
  52. Default                                  : Yes
  53. Alternate group                          : 1
复制代码

誓词无声 [全20集][国语中字].Shi.Yan.Wu.Sheng.2002.720p.WEB-DL.x264.AAC-TAG 10.63GB-2.png

誓词无声 [全20集][国语中字].Shi.Yan.Wu.Sheng.2002.720p.WEB-DL.x264.AAC-TAG 10.63GB-3.png

誓词无声 [全20集][国语中字].Shi.Yan.Wu.Sheng.2002.720p.WEB-DL.x264.AAC-TAG 10.63GB-4.png

誓词无声 [全20集][国语中字].Shi.Yan.Wu.Sheng.2002.720p.WEB-DL.x264.AAC-TAG 10.63GB-5.png







回复

使用道具 举报

懒得打字嘛,点击右侧快捷回复 【右侧内容,后台自定义】
您需要登录后才可以回帖 登录 | 立即加入

本版积分规则

Archiver| |网站地图

Copyright © 2024 Comsenz Inc. Powered by 蓝光电影网

本站内容由用户自主分享和转载自互联网,转载目的在于传递更多信息,并不代表本网赞同其观点和对其真实性负责。

如有侵权、违反国家法律政策行为,请联系我们,我们会第一时间及时清除和处理!

举报反馈邮箱:4k1080.com@gmail.com

快速回复 返回顶部 返回列表