找回密码

查看: 182|回复: 0

[剧情] 榴莲飘飘 [国语].Liulian.piao.piao.AKA.Durian.Durian.2000.DVDRip.x264-TAG 2.67GB

[复制链接]
蓝光币
1840
发表于 2024-4-2 09:45:25 | 显示全部楼层 |阅读模式
榴莲飘飘 [国语].Liulian.piao.piao.AKA.Durian.Durian.2000.DVDRip.x264-TAG 2.67GB-1.jpg
◎译  名 榴莲飘飘
◎片  名 榴槤飄飄
◎年  代 2000
◎国  家 中国大陆/香港/法国
◎类  别 剧情
◎语  言 汉语普通话/粤语
◎上映日期 2000-11-16
◎IMDb评分  7.2/10 from 535 users
◎IMDb链接  http://www.imdb.com/title/tt0255327/
◎豆瓣评分 7.6/10 from 20736 users
◎豆瓣链接 https://movie.douban.com/subject/1307681/
◎片  长 116分钟
◎导  演 陈果 Fruit Chan
◎主  演 秦海璐 Hailu Qin
      麦惠芬 Wai-Fan Mak
      麦雪雯
      杨美金
      黄明

◎简  介

  学了九年京剧却在本地没有前途的阿燕(秦海璐)不得已来到旺角明智地化为妓女挣快钱,并给自己定下(做到双程护照到期的)刻日,在所住小巷结识一样来自豪陆可是不法出境的少女阿芬(麦惠芬)后,她被阿芬在逆境中的悲观与纯真感动,两人在异乡成为朋友。
  返回牡丹江小镇换作另一种身份决议好好生活时,阿燕发现四周天下已与她所了解的大不不异,见识到现实中别的的(分歧于在港时的)残暴与无情,心生失落,而当收到阿芬寄来的榴莲时,各类复杂滋味涌上她心头。

◎获奖情况

  第38届台北金马影展  (2001)
  金马奖 最好剧情片
  金马奖 最好导演(提名) 陈果
  金马奖 最好女配角 秦海璐
  金马奖 最好原著剧本 陈果
  金马奖 最好新演员 秦海璐
  金马奖 最好原创歌曲(提名) 陈果
  金马奖 最好剪辑(提名) 陈果

  第20届香港电影金像奖  (2001)
  最好电影(提名)
  最好导演(提名) 陈果
  最好编剧 陈果
  最好女配角(提名) 秦海璐
  最好新演员 秦海璐
  最好美术指导(提名) 田木

  1. General
  2. Unique ID : 173534576901765270411744458825945549104 (0×828D8B36BFFCAF0FB322DEACCDAF8930)
  3. Complete name : Liulian.piao.piao.AKA.Durian.Durian.2000.DVDRip.x264-TAG.mkv
  4. Format : Matroska
  5. Format version : Version 4 / Version 2
  6. File size : 2.67 GiB
  7. Duration : 1h 56mn
  8. Overall bit rate : 3 293 Kbps
  9. Encoded date : UTC 2015-04-04 19:53:58
  10. Writing application : mkvmerge v7.7.0 ('Six Voices') 64bit built on Feb 28 2015 23:39:33
  11. Writing library : libebml v1.3.1 + libmatroska v1.4.2
  12. COMMENT : Encoded by Pirata00
  13. DURATION : 01:53:02.500000000
  14. NUMBER_OF_frameS : 1390
  15. NUMBER_OF_BYTES : 35712
  16. _STATISTICS_WRITING_APP : mkvmerge v7.7.0 ('Six Voices') 64bit built on Feb 28 2015 23:39:33
  17. _STATISTICS_WRITING_DATE_UTC : 2015-04-04 19:53:58
  18. _STATISTICS_TAGS : BPS DURATION NUMBER_OF_frameS NUMBER_OF_BYTES

  19. Video
  20. ID : 1
  21. Format : AVC
  22. Format/Info : Advanced Video Codec
  23. Format profile : [email]High@L3.1[/email]
  24. Format settings CABAC : Yes
  25. Format settings Reframes : 12 frames
  26. Codec ID : V_MPEG4/ISO/AVC
  27. Duration : 1h 56mn
  28. Bit rate : 2 780 Kbps
  29. Width : 708 pixels
  30. Height : 396 pixels
  31. Display aspect ratio : 2.119
  32. frame rate mode : Constant
  33. frame rate : 25.000 fps
  34. Color space : YUV
  35. Chroma subsampling : 4:2:0
  36. Bit depth : 8 bits
  37. Scan type : Progressive
  38. Bits/(Pixel*frame) : 0.397
  39. Stream size : 2.26 GiB (84%)
  40. Writing library : x264 core 142 r2431 ac76440
  41. Encoding settings : cabac=1 / ref=12 / deblock=1:-3:-3 / analyse=0×3:0×133 / me=tesa / subme=9 / psy=1 / psy_rd=1.00:0.00 / mixed_ref=1 / me_range=24 / chroma_me=1 / trellis=2 / 8x8dct=1 / cqm=0 / deadzone=2111 / fast_pskip=0 / chroma_qp_offset=-2 / threads=12 / lookahead_threads=3 / sliced_threads=0 / nr=0 / decimate=1 / interlaced=0 / bluray_compat=0 / constrained_intra=0 / bframes=12 / b_pyramid=2 / b_adapt=2 / b_bias=0 / direct=3 / weightb=1 / open_gop=0 / weightp=2 / keyint=250 / keyint_min=25 / scenecut=40 / intra_refresh=0 / rc_lookahead=120 / rc=crf / mbtree=0 / crf=15.2 / qcomp=0.65 / qpmin=0 / qpmax=69 / qpstep=4 / vbv_maxrate=14000 / vbv_bufsize=14000 / crf_max=0.0 / nal_hrd=none / filler=0 / ip_ratio=1.40 / pb_ratio=1.30 / aq=1:0.85
  42. Default : Yes
  43. Forced : No

  44. Audio
  45. ID : 2
  46. Format : AC-3
  47. Format/Info : Audio Coding 3
  48. Mode extension : CM (complete main)
  49. Format settings Endianness : Big
  50. Codec ID : A_AC3
  51. Duration : 1h 56mn
  52. Bit rate mode : Constant
  53. Bit rate : 448 Kbps
  54. Channel(s) : 2 channels
  55. Channel positions : Front: L R
  56. Sampling rate : 48.0 KHz
  57. Bit depth : 16 bits
  58. Compression mode : Lossy
  59. Stream size : 373 MiB (14%)
  60. title : Cantonese
  61. Language : Chinese
  62. Default : Yes
  63. Forced : No

  64. Text #1
  65. ID : 3
  66. Format : UTF-8
  67. Codec ID : S_TEXT/UTF8
  68. Codec ID/Info : UTF-8 Plain Text
  69. Language : English
  70. Default : Yes
  71. Forced : No

  72. Text #2
  73. ID : 4
  74. Format : VobSub
  75. Muxing mode : zlib
  76. Codec ID : S_VOBSUB
  77. Codec ID/Info : The same subtitle format used on DVDs
  78. Language : French
  79. Default : No
  80. Forced : No

  81. Menu
  82. 00:00:00.000 : en:Chapter 1
  83. 00:14:24.560 : en:Chapter 2
  84. 00:22:32.800 : en:Chapter 3
  85. 00:39:04.240 : en:Chapter 4
  86. 00:49:14.640 : en:Chapter 5
  87. 00:57:45.720 : en:Chapter 6
  88. 01:08:51.880 : en:Chapter 7
  89. 01:14:13.600 : en:Chapter 8
  90. 01:22:56.920 : en:Chapter 9
  91. 01:31:48.320 : en:Chapter 10
  92. 01:41:51.480 : en:Chapter 11
  93. 01:52:45.280 : en:Chapter 12
复制代码











回复

使用道具 举报

懒得打字嘛,点击右侧快捷回复 【右侧内容,后台自定义】
您需要登录后才可以回帖 登录 | 立即加入

本版积分规则

Copyright © 2024 Comsenz Inc. Powered by 蓝光电影网

本站内容由用户自主分享和转载自互联网,转载目的在于传递更多信息,并不代表本网赞同其观点和对其真实性负责。

如有侵权、违反国家法律政策行为,请联系我们,我们会第一时间及时清除和处理!

举报反馈邮箱:4k1080.com@gmail.com

快速回复 返回顶部 返回列表