找回密码

查看: 3619|回复: 44

[爱情] 火口的两人 [中字].Kakou.No.Futari.AKA.It.Feels.So.Good.2019.1080p.BluRay.x264.DTS.5.1-TAG 13.46GB

[复制链接]
蓝光币
2039
发表于 2024-4-1 15:04:26 | 显示全部楼层 |阅读模式
火口的两人 [中字].Kakou.No.Futari.AKA.It.Feels.So.Good.2019.1080p.BluRay.x264.DTS.5.1-TAG 13.46GB-1.jpg

◎译  名 火口的两人/It Feels So Good/火口的二人(台)/火口秘情/火山口的两小我
◎片  名 火口のふたり
◎年  代 2019
◎产  地 日本
◎类  别 恋爱/情色
◎语  言 日语
◎上映日期 2019-08-23(日本)
◎IMDb评分  6.2/10 from 601 users
◎IMDb链接  https://www.imdb.com/title/tt10747038/
◎豆瓣评分 7.2/10 from 47727 users
◎豆瓣链接 https://douban.com/subject/30405087/
◎片  长 115分钟
◎导  演 荒井晴彦 Haruhiko Arai
◎编  剧 荒井晴彦 Haruhiko Arai / 白石一文 Kazufumi Shiraishi
◎主  演 柄本佑 Tasuku Emoto
      泷内公美 Kumi Takiuchi
      柄本明 Akira Emoto

◎标  签 情色 | 日本 | 恋爱 | 日本电影 | 2019 | 剧情 | 荒井晴彦 | 电影

◎简  介

  
  「当庞大的外在天下崩坏时,人们只能在自己的小天下中追求保存之道。直子与贤治将自我封锁在两人专属的小天下里,陪伴着男女之间自但是然的精神关系,恍如被抛入了没法扯谎的宇宙当中,傍边有着快感,也袒暴露人们原本具有的特质。似乎惟有潜入这个小小宇宙当中,人们才能发挥实在的顽强」─原著作家白石一文
  
  十天后行将驱逐婚礼的直子,与重回故乡秋田的昔日情人贤治,久别重逢。直子从为了驱逐新生活而整理出来的物品傍边,翻出了一底细簿,相簿里是她与贤治一丝不挂地交缠着的黑白照片;往昔驯服着愿望本能共度的青春时光就此苏醒。
  
  「只要今晚就好,让我们回到曩昔好吗?」在直子未婚夫归来的五天内,在刻画于精神的愉悦记忆及纠葛的绝顶,两人将看到什么风光?连系了震灾布景,包覆在淡然平常之下的浓密性爱,恍如行将喷发的火山,迸裂出扭曲却纯洁、毅但是绝美的生命岩浆。

  1. General
  2. Format : Matroska
  3. Format version : Version 4
  4. File size : 13.5 GiB
  5. Duration : 1 h 55 min
  6. Overall bit rate : 16.6 Mb/s
  7. Movie name : Kakou No Futari AKA It Feels So Good [2019] 1080p BluRay x264 DTS 5.1 - TAG
  8. Encoded date : UTC 2020-09-01 02:19:49
  9. Writing application : mkvmerge v49.0.0 ('Sick Of Losing Soulmates') 64-bit
  10. Writing library : libebml v1.4.0 + libmatroska v1.6.1

  11. Video
  12. ID : 1
  13. Format : AVC
  14. Format/Info : Advanced Video Codec
  15. Format profile : [email]High@L4.1[/email]
  16. Format settings : CABAC / 4 Ref Frames
  17. Format settings, CABAC : Yes
  18. Format settings, Reference frames : 4 frames
  19. Codec ID : V_MPEG4/ISO/AVC
  20. Duration : 1 h 55 min
  21. Bit rate : 15.1 Mb/s
  22. Width : 1 920 pixels
  23. Height : 1 038 pixels
  24. Display aspect ratio : 1.85:1
  25. Frame rate mode : Constant
  26. Frame rate : 23.976 (24000/1001) FPS
  27. Color space : YUV
  28. Chroma subsampling : 4:2:0
  29. Bit depth : 8 bits
  30. Scan type : Progressive
  31. Bits/(Pixel*Frame) : 0.316
  32. Stream size : 12.2 GiB (91%)
  33. Writing library : x264 core 160 r3009 4c9b076
  34. Encoding settings : cabac=1 / ref=4 / deblock=1:-3:-3 / analyse=0x3:0x133 / me=umh / subme=11 / psy=1 / psy_rd=1.00:0.00 / mixed_ref=1 / me_range=32 / chroma_me=1 / trellis=2 / 8x8dct=1 / cqm=0 / deadzone=21,11 / fast_pskip=0 / chroma_qp_offset=-2 / threads=9 / lookahead_threads=2 / sliced_threads=0 / nr=0 / decimate=0 / interlaced=0 / bluray_compat=0 / constrained_intra=0 / bframes=16 / b_pyramid=2 / b_adapt=2 / b_bias=0 / direct=3 / weightb=1 / open_gop=0 / weightp=2 / keyint=250 / keyint_min=23 / scenecut=40 / intra_refresh=0 / rc_lookahead=250 / rc=crf / mbtree=0 / crf=15.7 / qcomp=0.60 / qpmin=0 / qpmax=69 / qpstep=4 / vbv_maxrate=62500 / vbv_bufsize=78125 / crf_max=0.0 / nal_hrd=none / filler=0 / ip_ratio=1.30 / pb_ratio=1.20 / aq=3:0.80
  35. Default : Yes
  36. Forced : No
  37. Color range : Limited
  38. Color primaries : BT.709
  39. Matrix coefficients : BT.709

  40. Audio
  41. ID : 2
  42. Format : DTS
  43. Format/Info : Digital Theater Systems
  44. Codec ID : A_DTS
  45. Duration : 1 h 55 min
  46. Bit rate mode : Constant
  47. Bit rate : 1 509 kb/s
  48. Channel(s) : 6 channels
  49. Channel layout : C L R Ls Rs LFE
  50. Sampling rate : 48.0 kHz
  51. Frame rate : 93.750 FPS (512 SPF)
  52. Bit depth : 24 bits
  53. Compression mode : Lossy
  54. Stream size : 1.22 GiB (9%)
  55. Language : Japanese
  56. Default : Yes
  57. Forced : No

  58. Text #1
  59. ID : 3
  60. Format : UTF-8
  61. Codec ID : S_TEXT/UTF8
  62. Codec ID/Info : UTF-8 Plain Text
  63. Duration : 1 h 54 min
  64. Bit rate : 38 b/s
  65. Count of elements : 1142
  66. Stream size : 31.9 KiB (0%)
  67. Language : English
  68. Default : Yes
  69. Forced : No

  70. Text #2
  71. ID : 4
  72. Format : PGS
  73. Muxing mode : zlib
  74. Codec ID : S_HDMV/PGS
  75. Codec ID/Info : Picture based subtitle format used on BDs/HD-DVDs
  76. Duration : 1 h 54 min
  77. Bit rate : 18.5 kb/s
  78. Count of elements : 1993
  79. Stream size : 15.1 MiB (0%)
  80. Title : Simplified Chinese
  81. Language : Chinese
  82. Default : No
  83. Forced : No

  84. Text #3
  85. ID : 5
  86. Format : PGS
  87. Muxing mode : zlib
  88. Codec ID : S_HDMV/PGS
  89. Codec ID/Info : Picture based subtitle format used on BDs/HD-DVDs
  90. Duration : 1 h 54 min
  91. Bit rate : 18.7 kb/s
  92. Count of elements : 1993
  93. Stream size : 15.3 MiB (0%)
  94. Title : Traditional Chinese
  95. Language : Chinese
  96. Default : No
  97. Forced : No

  98. Menu
  99. 00:00:00.000 : :Chapter 01
  100. 00:15:25.341 : :Chapter 02
  101. 00:26:55.488 : :Chapter 03
  102. 00:41:37.953 : :Chapter 04
  103. 00:53:09.519 : :Chapter 05
  104. 01:12:21.920 : :Chapter 06
  105. 01:32:00.181 : :Chapter 07
  106. 01:48:56.655 : :Chapter 08
复制代码


火口的两人 [中字].Kakou.No.Futari.AKA.It.Feels.So.Good.2019.1080p.BluRay.x264.DTS.5.1-TAG 13.46GB-2.gif
火口的两人 [中字].Kakou.No.Futari.AKA.It.Feels.So.Good.2019.1080p.BluRay.x264.DTS.5.1-TAG 13.46GB-3.png
火口的两人 [中字].Kakou.No.Futari.AKA.It.Feels.So.Good.2019.1080p.BluRay.x264.DTS.5.1-TAG 13.46GB-4.jpg
火口的两人 [中字].Kakou.No.Futari.AKA.It.Feels.So.Good.2019.1080p.BluRay.x264.DTS.5.1-TAG 13.46GB-5.jpg
火口的两人 [中字].Kakou.No.Futari.AKA.It.Feels.So.Good.2019.1080p.BluRay.x264.DTS.5.1-TAG 13.46GB-6.jpg
火口的两人 [中字].Kakou.No.Futari.AKA.It.Feels.So.Good.2019.1080p.BluRay.x264.DTS.5.1-TAG 13.46GB-7.jpg
火口的两人 [中字].Kakou.No.Futari.AKA.It.Feels.So.Good.2019.1080p.BluRay.x264.DTS.5.1-TAG 13.46GB-8.jpg

火口的两人 [中字].Kakou.No.Futari.AKA.It.Feels.So.Good.2019.1080p.BluRay.x264.DTS.5.1-TAG 13.46GB-9.gif
火口的两人 [中字].Kakou.No.Futari.AKA.It.Feels.So.Good.2019.1080p.BluRay.x264.DTS.5.1-TAG 13.46GB-10.jpg
火口的两人 [中字].Kakou.No.Futari.AKA.It.Feels.So.Good.2019.1080p.BluRay.x264.DTS.5.1-TAG 13.46GB-11.gif
火口的两人 [中字].Kakou.No.Futari.AKA.It.Feels.So.Good.2019.1080p.BluRay.x264.DTS.5.1-TAG 13.46GB-12.jpg
火口的两人 [中字].Kakou.No.Futari.AKA.It.Feels.So.Good.2019.1080p.BluRay.x264.DTS.5.1-TAG 13.46GB-13.gif
火口的两人 [中字].Kakou.No.Futari.AKA.It.Feels.So.Good.2019.1080p.BluRay.x264.DTS.5.1-TAG 13.46GB-14.jpg









回复

使用道具 举报

蓝光币
639
发表于 2024-4-1 17:31:12 | 显示全部楼层
谢谢分享
回复

使用道具 举报

蓝光币
414
发表于 2024-4-1 19:38:52 | 显示全部楼层
楼主发贴辛苦了,谢谢楼主分享!我觉得蓝光电影网是注册对了!
回复

使用道具 举报

蓝光币
678
发表于 2024-4-1 20:34:06 | 显示全部楼层

楼主太厉害了!楼主,电影应该很好看我觉得蓝光电影网真是个好地方!
回复

使用道具 举报

蓝光币
236
发表于 2024-4-1 21:51:01 | 显示全部楼层
谢谢分享!!!!
回复

使用道具 举报

蓝光币
876
发表于 2024-4-2 00:00:50 | 显示全部楼层
楼主发贴辛苦了,谢谢楼主分享!我觉得蓝光电影网是注册对了!
回复

使用道具 举报

蓝光币
1591
发表于 2024-4-2 06:56:43 | 显示全部楼层

我看不错噢 谢谢楼主!蓝光电影网越来越好!
回复

使用道具 举报

蓝光币
152
发表于 2024-4-3 02:16:33 来自手机 | 显示全部楼层
感谢楼主分享
回复

使用道具 举报

蓝光币
160
发表于 2024-4-3 06:59:49 | 显示全部楼层
多谢楼主分享
回复

使用道具 举报

蓝光币
176
发表于 2024-4-3 12:30:42 | 显示全部楼层
谢谢楼主!蓝光电影网越来越好!
回复

使用道具 举报

懒得打字嘛,点击右侧快捷回复 【右侧内容,后台自定义】
您需要登录后才可以回帖 登录 | 立即加入

本版积分规则

Archiver| |网站地图

Copyright © 2024 Comsenz Inc. Powered by 蓝光电影网

本站内容由用户自主分享和转载自互联网,转载目的在于传递更多信息,并不代表本网赞同其观点和对其真实性负责。

如有侵权、违反国家法律政策行为,请联系我们,我们会第一时间及时清除和处理!

举报反馈邮箱:4k1080.com@gmail.com

快速回复 返回顶部 返回列表