找回密码

查看: 1659|回复: 22

[2160p-WEB] 偷窥者/偷窥成魔 [内封多国语言字幕].The.Voyeurs.2021.2160p.AMZN.WEB-DL.H265.DDP5.1-TAG 12.19GB

[复制链接]
蓝光币
1858
发表于 2024-3-29 19:28:42 | 显示全部楼层 |阅读模式
窃看者/窃看成魔 [内封多国说话字幕].The.Voyeurs.2021.2160p.AMZN.WEB-DL.H265.DDP5.1-TAG 12.19GB-1.jpg

◎译  名 窃看者/窃看成魔
◎片  名 The Voyeurs
◎年  代 2021
◎产  地 美国
◎类  别 惊悚
◎语  言 英语
◎上映日期 2021-09-10(美国收集)
◎IMDb评分  6/10 from 18504 users
◎IMDb链接  https://www.imdb.com/title/tt11235772/
◎豆瓣评分 6.8/10 from 18538 users
◎豆瓣链接 https://movie.douban.com/subject/34981939/
◎片  长 116分钟
◎导  演 迈克尔·莫汉 Michael Mohan
◎编  剧 迈克尔·莫汉 Michael Mohan
◎主  演 西德妮·斯威尼 Sydney Sweeney
      贾斯蒂斯·史姑娘 Justice Smith
      本·哈迪 Ben Hardy
      刘承羽 Natasha Liu Bordizzo
      凯特·亚历山大 Cait Alexander

◎简  介

  皮帕和托马斯搬进了他们求之不得的公寓,他们留意到他们的窗户正对着劈面的公寓——约请他们亲眼目击街劈面这对诱人佳耦的不稳定关系。但当他们试图以匿名方式介入他们的生活时,他们不知不觉地激发了一系列将致使灾难的事务。

  1. General
  2. Unique ID: 40413283805333175117378927024663391878 (0x1E6750BA547ED95A4F7B0EB471EF6E86)
  3. Complete name: [窃看者].The.Voyeurs.2021.2160p.AMZN.WEB-DL.H265.DDP5.1-PTerWEB.mkv
  4. Format: Matroska
  5. Format version: Version 4
  6. File Size: 12.2 GiB
  7. Duration: 1 h 56 min
  8. Overall bit rate: 15.0 Mb/s
  9. Encoded date: UTC 2022-05-21 13:15:17
  10. Writing application: mkvmerge v50.0.0 ('Awakenings') 64-bit
  11. Writing library: libebml v1.4.0 + libmatroska v1.6.2

  12. Video
  13. ID: 1
  14. Format: HEVC
  15. Format/Info: High Efficiency Video Coding
  16. Format profile: Main@L5@Main
  17. Codec ID: V_MPEGH/ISO/HEVC
  18. Duration: 1 h 56 min
  19. Bit rate: 14.4 Mb/s
  20. Width: 3 840 pixels
  21. Height: 1 600 pixels
  22. Display aspect ratio: 2.40:1
  23. Frame rate mode: Constant
  24. Frame rate: 23.976 (24000/1001) FPS
  25. Color space: YUV
  26. Chroma subsampling: 4:2:0
  27. Bit depth: 8 bits
  28. Bits/(Pixel*Frame): 0.098
  29. Stream size: 11.7 GiB (96%)
  30. Writing library: x265 2.9_elemental+1-9e0607aa5b6f:[Linux][GCC 4.8.5][64 bit] 8bit+10bit+12bit
  31. Encoding settings: cpuid=1111039 / frame-threads=2 / wpp / no-pmode / no-pme / psnr / ssim / log-level=2 / csv / csv-log-level=2 / input-csp=1 / input-res=3840x1600 / interlace=0 / total-frames=0 / level-idc=50 / high-tier=1 / uhd-bd=0 / ref=5 / no-allow-non-conformance / no-repeat-headers / annexb / no-aud / no-hrd / info / hash=0 / no-temporal-layers / no-open-gop / min-keyint=61 / keyint=120 / gop-lookahead=0 / bframes=8 / b-adapt=2 / b-pyramid / bframe-bias=0 / rc-lookahead=120 / lookahead-slices=4 / scenecut=0 / radl=0 / no-intra-refresh / ctu=64 / min-cu-size=8 / rect / amp / max-tu-size=32 / tu-inter-depth=4 / tu-intra-depth=4 / limit-tu=4 / rdoq-level=2 / dynamic-rd=0.00 / no-ssim-rd / signhide / tskip / nr-intra=100 / nr-inter=600 / no-constrained-intra / strong-intra-smoothing / max-merge=3 / limit-refs=3 / limit-modes / me=3 / subme=3 / merange=57 / temporal-mvp / weightp / weightb / no-analyze-src-pics / deblock=0:0 / no-sao / no-sao-non-deblock / rd=4 / no-early-skip / no-rskip / no-fast-intra / tskip-fast / no-cu-lossless / b-intra / no-splitrd-skip / rdpenalty=0 / psy-rd=4.00 / psy-rdoq=10.00 / no-rd-refine / no-lossless / cbqpoffs=0 / crqpoffs=0 / rc=crf / crf=25.0 / qcomp=0.60 / qpstep=1 / stats-write=0 / stats-read=0 / vbv-maxrate=15000 / vbv-bufsize=20000 / vbv-init=0.9 / crf-max=0.0 / crf-min=0.0 / ipratio=1.10 / pbratio=1.00 / aq-mode=0 / aq-strength=1.50 / no-cutree / zone-count=0 / no-strict-cbr / qg-size=32 / rc-grain / qpmax=69 / qpmin=0 / const-vbv / sar=1 / overscan=0 / videoformat=2 / range=0 / colorprim=1 / transfer=1 / colormatrix=1 / chromaloc=0 / display-window=0 / max-cll=0,0 / min-luma=0 / max-luma=255 / log2-max-poc-lsb=8 / vui-timing-info / vui-hrd-info / slices=1 / opt-qp-pps / no-opt-ref-list-length-pps / no-multi-pass-opt-rps / scenecut-bias=0.05 / no-opt-cu-delta-qp / no-aq-motion / no-hdr / no-hdr-opt / no-dhdr10-opt / no-idr-recovery-sei / analysis-reuse-level=5 / scale-factor=0 / refine-intra=0 / refine-inter=0 / refine-mv=0 / no-limit-sao / ctu-info=0 / no-lowpass-dct / refine-mv-type=0 / copy-pic=1 / max-ausize-factor=1.0 / no-dynamic-refine / no-single-sei
  32. Default: Yes
  33. Forced: No
  34. Color range: Limited
  35. Color primaries: BT.709
  36. Transfer characteristics: BT.709
  37. Matrix coefficients: BT.709

  38. Audio
  39. ID: 2
  40. Format: E-AC-3
  41. Format/Info: Enhanced AC-3
  42. Commercial name: Dolby Digital Plus
  43. Codec ID: A_EAC3
  44. Duration: 1 h 56 min
  45. Bit rate mode: Constant
  46. Bit rate: 640 kb/s
  47. Channel(s): 6
  48. Channel layout: L R C LFE Ls Rs
  49. Sampling rate: 48.0 kHz
  50. Frame rate: 31.250 FPS (1536 SPF)
  51. Compression mode: Lossy
  52. Stream size: 533 MiB (4%)
  53. Title: English
  54. Language: English
  55. Service kind: Complete Main
  56. Default: No
  57. Forced: No

  58. Text #1
  59. ID: 3
  60. Format: UTF-8
  61. Codec ID: S_TEXT/UTF8
  62. Codec ID/Info: UTF-8 Plain Text
  63. Duration: 1 h 55 min
  64. Bit rate: 60 b/s
  65. Count of elements: 1815
  66. Stream size: 51.5 KiB (0%)
  67. Title: English [SDH]
  68. Language: English
  69. Default: No
  70. Forced: No

  71. Text #2
  72. ID: 4
  73. Format: UTF-8
  74. Codec ID: S_TEXT/UTF8
  75. Codec ID/Info: UTF-8 Plain Text
  76. Duration: 1 h 48 min
  77. Bit rate: 52 b/s
  78. Count of elements: 1443
  79. Stream size: 42.1 KiB (0%)
  80. Title: English
  81. Language: English
  82. Default: No
  83. Forced: No

  84. Text #3
  85. ID: 5
  86. Format: UTF-8
  87. Codec ID: S_TEXT/UTF8
  88. Codec ID/Info: UTF-8 Plain Text
  89. Duration: 1 h 55 min
  90. Bit rate: 36 b/s
  91. Count of elements: 1211
  92. Stream size: 30.9 KiB (0%)
  93. Title: Japanese
  94. Language: Japanese
  95. Default: No
  96. Forced: No
复制代码
窃看者/窃看成魔 [内封多国说话字幕].The.Voyeurs.2021.2160p.AMZN.WEB-DL.H265.DDP5.1-TAG 12.19GB-2.png








回复

使用道具 举报

蓝光币
134
发表于 2024-3-29 21:19:17 | 显示全部楼层
楼主发贴辛苦了,谢谢楼主分享!我觉得蓝光电影网是注册对了!
回复

使用道具 举报

蓝光币
115
发表于 2024-3-29 22:35:55 | 显示全部楼层

这东西我收了!谢谢楼主!蓝光电影网真好!
回复

使用道具 举报

蓝光币
1782
发表于 2024-3-29 23:34:39 | 显示全部楼层
这样题材的影片,若不插入情色镜头,那就令人索然无味了。
回复

使用道具 举报

蓝光币
4
发表于 2024-3-30 00:38:37 | 显示全部楼层
楼主发贴辛苦了,谢谢楼主分享!我觉得蓝光电影网是注册对了!
回复

使用道具 举报

蓝光币
301
发表于 2024-3-30 04:05:46 | 显示全部楼层
楼主发贴辛苦了,谢谢楼主分享!我觉得蓝光电影网是注册对了!
回复

使用道具 举报

蓝光币
290
发表于 2024-3-30 07:34:54 | 显示全部楼层
楼主发贴辛苦了,谢谢楼主分享!我觉得蓝光电影网是注册对了!
回复

使用道具 举报

蓝光币
241
发表于 2024-3-30 08:34:00 | 显示全部楼层
楼主发贴辛苦了,谢谢楼主分享!我觉得蓝光电影网是注册对了!
回复

使用道具 举报

蓝光币
516
发表于 2024-3-30 22:26:48 | 显示全部楼层

楼主,我太崇拜你了!我想我是一天也不能离开蓝光电影网。
回复

使用道具 举报

蓝光币
138
发表于 2024-3-31 10:34:46 | 显示全部楼层
路过,支持一下!
回复

使用道具 举报

懒得打字嘛,点击右侧快捷回复 【右侧内容,后台自定义】
您需要登录后才可以回帖 登录 | 立即加入

本版积分规则

Copyright © 2024 Comsenz Inc. Powered by 蓝光电影网

本站内容由用户自主分享和转载自互联网,转载目的在于传递更多信息,并不代表本网赞同其观点和对其真实性负责。

如有侵权、违反国家法律政策行为,请联系我们,我们会第一时间及时清除和处理!

举报反馈邮箱:4k1080.com@gmail.com

快速回复 返回顶部 返回列表