找回密码

查看: 657|回复: 9

[2160p-WEB] 少女斗恶龙.Damsel.2024.2160p.NF.WEB-DL.DV.P5.DDP5.1.Atmos.H265.MKV-BEN.THE.MEN 14.99GB

[复制链接]
蓝光币
1858
发表于 2024-3-26 11:01:41 | 显示全部楼层 |阅读模式


◎译  名 少女斗恶龙 / 流浪女子 / 未婚女子
◎片  名 Damsel
◎年  代 2024
◎产  地 美国
◎类  别 行动 / 奇异 / 冒险
◎语  言 英语
◎上映日期 2024-03-08(美国收集)
◎IMDb评星  ★★★★★★☆☆☆☆
◎IMDb评分  6.1/10 from 56,968 users
◎IMDb链接  https://www.imdb.com/title/tt13452446/
◎豆瓣评星 ★★★☆☆
◎豆瓣评分 6.4/10 from 8,430 users
◎豆瓣链接 https://movie.douban.com/subject/35251159/
◎片  长 110分钟
◎导  演 胡安·卡洛斯·弗雷斯纳迪罗 / Juan Carlos Fresnadillo
◎演  员 米莉·波比·布朗 / Millie Bobby Brown | 饰 Princess Elodie
      索瑞·安达斯鲁 / Shohreh Aghdashloo
      罗宾·怀特 / Robin Wright
      安吉拉·贝塞特 / Angela Bassett | 饰 Lady Bayford
      尼克·罗宾森 / Nick Robinson
      雷·温斯顿 / Ray Winstone
      布鲁克·卡特 / Brooke Carter
       Ulli Ackermann
       Mens-Sana Tamakloe | 饰 Knight
       Manon Stieglitz | 饰 Red Priestess
      埃尔马诺·桑丘 / Elmano Sancho | 饰 Blacksmith
       Rui M Tomas | 饰 Villager
       Rina Martin | 饰 Priestess
       Ricky Guillart | 饰 Sir Oded
       Nicole Joseph | 饰 Victoria
       Ricarda Clay | 饰 Maid in the Tower
       Sonya Nisa
       Esther Odumade
       Brogan Mcfarlane
       Sam Sharma | 饰 Knight
◎编  剧 丹·马泽 / Dan Mazeau
◎简  介 
  在这部新奇异电影中,一个年轻女子以为自己嫁给了一个完善的王子,她发现自己终极不是公主,而是为了抚慰一条嗜血的龙而牺牲的。 她试图活到有人能救她为止——她很称心识到没有人会来,这个"姑娘"必须救自己。
  1. Format                                   : Matroska
  2. Format version                           : Version 4
  3. File size                                : 15.0 GiB
  4. Duration                                 : 1 h 49 min
  5. Overall bit rate                         : 19.6 Mb/s
  6. Frame rate                               : 24.000 FPS
  7. Movie name                               : Damsel.2024.2160p.NF.WEB-DL.DV.P5[Ben The Men]
  8. Encoded date                             : 2024-03-23 00:42:54 UTC
  9. Writing application                      : mkvmerge v83.0 ('Circle Of Friends') 64-bit
  10. Writing library                          : libebml v1.4.5 + libmatroska v1.7.1
  11. Video
  12. ID                                       : 1
  13. Format                                   : HEVC
  14. Format/Info                              : High Efficiency Video Coding
  15. Format profile                           : Main 10@L5@Main
  16. HDR format                               : Dolby Vision, Version 1.0, dvhe.05.06, BL+RPU
  17. Codec ID                                 : V_MPEGH/ISO/HEVC
  18. Duration                                 : 1 h 49 min
  19. Bit rate                                 : 18.8 Mb/s
  20. Width                                    : 3 840 pixels
  21. Height                                   : 2 160 pixels
  22. Display aspect ratio                     : 16:9
  23. Frame rate mode                          : Constant
  24. Frame rate                               : 24.000 FPS
  25. Color space                              : YUV
  26. Chroma subsampling                       : 4:2:0
  27. Bit depth                                : 10 bits
  28. Bits/(Pixel*Frame)                       : 0.095
  29. Stream size                              : 14.4 GiB (96%)
  30. Title                                    : BEN.THE.MEN
  31. Language                                 : English
  32. Default                                  : Yes
  33. Forced                                   : Yes
  34. Color range                              : Full
  35. Audio
  36. ID                                       : 2
  37. Format                                   : E-AC-3 JOC
  38. Format/Info                              : Enhanced AC-3 with Joint Object Coding
  39. Commercial name                          : Dolby Digital Plus with Dolby Atmos
  40. Codec ID                                 : A_EAC3
  41. Duration                                 : 1 h 49 min
  42. Bit rate mode                            : Constant
  43. Bit rate                                 : 768 kb/s
  44. Channel(s)                               : 6 channels
  45. Channel layout                           : L R C LFE Ls Rs
  46. Sampling rate                            : 48.0 kHz
  47. Frame rate                               : 31.250 FPS (1536 SPF)
  48. Compression mode                         : Lossy
  49. Stream size                              : 602 MiB (4%)
  50. Title                                    : BTM DDP5.1 Atmos
  51. Language                                 : English
  52. Service kind                             : Complete Main
  53. Default                                  : Yes
  54. Forced                                   : Yes
  55. Complexity index                         : 16
  56. Number of dynamic objects                : 15
  57. Bed channel count                        : 1 channel
  58. Bed channel configuration                : LFE
复制代码









回复

使用道具 举报

蓝光币
115
发表于 2024-3-26 11:30:35 | 显示全部楼层

既然你诚信诚意的推荐了,那我就勉为其难的看看吧!蓝光电影网不走平凡路。
回复

使用道具 举报

蓝光币
720
发表于 2024-3-26 19:10:31 | 显示全部楼层

楼主太厉害了!楼主,电影应该很好看我觉得蓝光电影网真是个好地方!
回复

使用道具 举报

蓝光币
1782
发表于 2024-3-27 23:19:17 | 显示全部楼层
这是什么梗?看海报有些看不懂。
回复

使用道具 举报

蓝光币
11
发表于 2024-3-28 08:52:20 | 显示全部楼层
楼主,电影应该很好看我觉得蓝光电影网真是个好地方!
回复

使用道具 举报

蓝光币
68
发表于 2024-3-28 10:06:59 | 显示全部楼层

其实我一直觉得楼主的品味不错!呵呵!蓝光电影网太棒了!
回复

使用道具 举报

蓝光币
1
发表于 2024-3-28 11:18:21 | 显示全部楼层
蓝光电影网太棒了!下载试看看
回复

使用道具 举报

蓝光币
4
发表于 2024-3-29 13:02:34 | 显示全部楼层

楼主太厉害了!楼主,电影应该很好看我觉得蓝光电影网真是个好地方!
回复

使用道具 举报

蓝光币
455
发表于 2024-3-31 14:50:40 | 显示全部楼层

这个帖子不回对不起自己!我想我是一天也不能离开蓝光电影网。
回复

使用道具 举报

蓝光币
455
发表于 2024-4-2 23:17:10 | 显示全部楼层

既然你诚信诚意的推荐了,那我就勉为其难的看看吧!蓝光电影网不走平凡路。
回复

使用道具 举报

懒得打字嘛,点击右侧快捷回复 【右侧内容,后台自定义】
您需要登录后才可以回帖 登录 | 立即加入

本版积分规则

Copyright © 2024 Comsenz Inc. Powered by 蓝光电影网

本站内容由用户自主分享和转载自互联网,转载目的在于传递更多信息,并不代表本网赞同其观点和对其真实性负责。

如有侵权、违反国家法律政策行为,请联系我们,我们会第一时间及时清除和处理!

举报反馈邮箱:4k1080.com@gmail.com

快速回复 返回顶部 返回列表