找回密码

查看: 107|回复: 0

[剧情] 言者无心.Teri.Baaton.Mein.Aisa.Uljha.Jiya.2024.Hindi.1080p.AMZN.WEB-DL.DD 5.1.H.264-TheBiscuitMan 8.04GB

[复制链接]
蓝光币
1840
发表于 2024-3-26 10:56:11 | 显示全部楼层 |阅读模式


◎译  名 言者无意
◎片  名 Teri Baaton Mein Aisa Uljha Jiya
◎年  代 2024
◎产  地 印度
◎类  别 剧情 / 笑剧 / 恋爱 / 科幻
◎语  言 印地语 Hindi
◎上映日期 2024-02-09(印度)
◎IMDb评星  ★★★★★★★☆☆☆
◎IMDb评分  7.0/10 from 43,211 users
◎IMDb链接  https://www.imdb.com/title/tt27459160/
◎豆瓣链接 https://movie.douban.com/subject/36754169/
◎片  长 141分钟
◎导  演  Amit Joshi
◎演  员 沙希德·卡普尔 / Shahid Kapur
      克里蒂·萨农 / Kriti Sanon
      达尔门德拉 / Dharmendra
      迪宝·卡帕蒂娅 / Dimple Kapadia
      阿希瑟·维尔马 / Ashish Verma
      格拉什·卡浦尔 / Grusha Kapoor
◎编  剧  Amit Joshi
◎简  介 
  Aryan (Shahid Kapoor) is a talented computer programmer specialising in robotics. He works for his mausi Urmila’s (Dimple Kapadia) tech firm which specialises in creating next-gen robots. He’s also commitment phobic and averse to getting married as he hasn’t found a compatible enough girl. On a business trip to the US, his aunt sets him up with SIFRA (Kriti Sanon), her assistant. They hit it off instantly, even hook-up but then Aryan finds out that she’s a robot.
  1. General
  2. Unique ID : 161711807996505947092828314391296278147 (0x79A88FB3DB57636B21A04C128A5EFE83)
  3. Complete name : Teri.Baaton.Mein.Aisa.Uljha.Jiya.2024.Hindi.1080p.AMZN.WEB-DL.DD+5.1.H.264-TheBiscuitMan.mkv
  4. Format : Matroska
  5. Format version : Version 4
  6. File size : 8.04 GiB
  7. Duration : 2 h 20 min
  8. Overall bit rate : 8 176 kb/s
  9. Frame rate : 24.000 FPS
  10. Writing application : mkvmerge v83.0 ('Circle Of Friends') 64-bit
  11. Writing library : libebml v1.4.5 + libmatroska v1.7.1
  12. Video
  13. ID : 1
  14. Format : AVC
  15. Format/Info : Advanced Video Codec
  16. Format profile : High@L4
  17. Format settings : CABAC / 4 Ref Frames
  18. Format settings, CABAC : Yes
  19. Format settings, Reference frames : 4 frames
  20. Format settings, GOP : M=4, N=48
  21. Codec ID : V_MPEG4/ISO/AVC
  22. Duration : 2 h 20 min
  23. Bit rate mode : Constant
  24. Bit rate : 7 530 kb/s
  25. Nominal bit rate : 10 000 kb/s
  26. Width : 1 920 pixels
  27. Height : 800 pixels
  28. Display aspect ratio : 2.40:1
  29. Frame rate mode : Constant
  30. Frame rate : 24.000 FPS
  31. Color space : YUV
  32. Chroma subsampling : 4:2:0
  33. Bit depth : 8 bits
  34. Scan type : Progressive
  35. Bits/(Pixel*Frame) : 0.204
  36. Stream size : 7.41 GiB (92%)
  37. Default : Yes
  38. Forced : No
  39. Color range : Limited
  40. Color primaries : BT.709
  41. Transfer characteristics : BT.709
  42. Matrix coefficients : BT.709
  43. Audio
  44. ID : 2
  45. Format : E-AC-3
  46. Format/Info : Enhanced AC-3
  47. Commercial name : Dolby Digital Plus
  48. Codec ID : A_EAC3
  49. Duration : 2 h 20 min
  50. Bit rate mode : Constant
  51. Bit rate : 640 kb/s
  52. Channel(s) : 6 channels
  53. Channel layout : L R C LFE Ls Rs
  54. Sampling rate : 48.0 kHz
  55. Frame rate : 31.250 FPS (1536 SPF)
  56. Compression mode : Lossy
  57. Stream size : 645 MiB (8%)
  58. Language : Hindi
  59. Service kind : Complete Main
  60. Default : Yes
  61. Forced : No
  62. Subtitle: Arabic (SA) | [SDH] Arabic (SA) | Burmese (MM) | [SDH] Burmese (MM) | English (US) | [SDH] English (US) | French (FR) | [SDH] French (FR) | Italian (IT) | [SDH] Italian (IT) | Malay (BN) | [SDH] Malay (BN) | Malay (MY) | [SDH] Malay (MY) | Polish (PL) | [SDH] Polish (PL) | Russian (RU) | [SDH] Russian (RU) | Thai (TH) | [SDH] Thai (TH)
复制代码









回复

使用道具 举报

懒得打字嘛,点击右侧快捷回复 【右侧内容,后台自定义】
您需要登录后才可以回帖 登录 | 立即加入

本版积分规则

Copyright © 2024 Comsenz Inc. Powered by 蓝光电影网

本站内容由用户自主分享和转载自互联网,转载目的在于传递更多信息,并不代表本网赞同其观点和对其真实性负责。

如有侵权、违反国家法律政策行为,请联系我们,我们会第一时间及时清除和处理!

举报反馈邮箱:4k1080.com@gmail.com

快速回复 返回顶部 返回列表