找回密码

查看: 215|回复: 0

[战争] 西伯利亚321步兵师/The 321th Siberian [俄语俄字].321-ya.Sibirskaya.2017.1080p.WEB-DL.VP9.DDP5.1-PTerWEB 2.82GB

[复制链接]
蓝光币
1840
发表于 2024-3-21 17:42:14 | 显示全部楼层 |阅读模式
西伯利亚321步卒师/The 321th Siberian [俄语俄字].321-ya.Sibirskaya.2017.1080p.WEB-DL.VP9.DDP5.1-PTerWEB 2.82GB-1.jpg

◎译  名 西伯利亚321步卒师/The 321th Siberian
◎片  名 321-я, Сибирская
◎年  代 2017
◎产  地 俄罗斯 哈萨克斯坦
◎类  别 历史 / 战争
◎语  言 俄语
◎上映日期 2019(俄罗斯)
◎IMDb评分  0/10 from 0 users
◎IMDb链接  https://www.imdb.com/title/tt6868824/
◎豆瓣评分 /10 from 0 users
◎豆瓣链接 https://movie.douban.com/subject/34436250/
◎片  长 137分钟
◎导  演 索尔邦·吕格德诺夫 Solbon Lygdenov

◎简  介

  《321-я, Сибирская》(中文名:西伯利亚第321步卒师)
  剧情:在1942年斯大林格勒长达5个半月的残暴轰炸和惨烈巷战中,有跨越100万的苏军战士们牺牲。在一场惨烈血腥的战役以后,苏联完全得胜,从而改变了希特勒德国在第二次天下大战欧洲疆场中的大势,迫使德军起头全线后撤,并终极退往柏林。
  苏联红军西伯利亚321步卒师由苏维埃最高统帅部于1942年3月至6月在赤塔州组成。
  军队首要职员来自前苏联赤塔州、布里亚特蒙古苏维埃和雅库茨克的西伯利亚百姓组成。
  红军第321步卒师于1942年7月中旬前往斯大林格勒城区作战,辅佐苏军大军队展开钳形攻势,将纳粹德国第六团体军逼退到斯大林格勒西部的包围圈,并终极迫使弗里德里希·保卢斯将军的德军军队在1943年2月2日完全投诚。 红军第321步卒师在1942年2月21日被归属于苏联红军顿河方面军。
  1943年3月19日,西伯利亚第321步卒师更名为红军第82近卫步卒师。

  1. General
  2. Unique ID: 244369676837569269740489827468309997152 (0xB7D7E347A88DF7A2BC2CC63FE608A660)
  3. 321-ya.Sibirskaya.2017.1080p.WEB-DL.VP9.DDP5.1-PTerWEB.mkv
  4. Format: Matroska
  5. Format version: Version 4
  6. File Size: 2.82 GiB
  7. Duration: 2 h 17 min
  8. Overall bit rate: 2 924 kb/s
  9. Encoded date: UTC 2022-08-22 03:20:01
  10. Writing application: mkvmerge v45.0.0 ('Heaven in Pennies') 64-bit
  11. Writing library: libebml v1.3.10 + libmatroska v1.5.2 / Lavf59.16.100

  12. Video
  13. ID: 1
  14. Format: VP9
  15. Codec ID: V_VP9
  16. Duration: 2 h 17 min
  17. Bit rate: 2 539 kb/s
  18. Width: 2 048 pixels
  19. Height: 858 pixels
  20. Display aspect ratio: 2.40:1
  21. Frame rate mode: Constant
  22. Frame rate: 24.000 FPS
  23. Color space: YUV
  24. Bits/(Pixel*Frame): 0.060
  25. Stream size: 2.44 GiB (87%)
  26. Default: Yes
  27. Forced: No
  28. Color range: Limited
  29. Color primaries: BT.709
  30. Transfer characteristics: BT.709
  31. Matrix coefficients: BT.709

  32. Audio
  33. ID: 2
  34. Format: E-AC-3
  35. Format/Info: Enhanced AC-3
  36. Commercial name: Dolby Digital Plus
  37. Codec ID: A_EAC3
  38. Duration: 2 h 17 min
  39. Bit rate mode: Constant
  40. Bit rate: 384 kb/s
  41. Channel(s): 6
  42. Channel layout: L R C LFE Ls Rs
  43. Sampling rate: 48.0 kHz
  44. Frame rate: 31.250 FPS (1536 SPF)
  45. Compression mode: Lossy
  46. Stream size: 379 MiB (13%)
  47. Title: ISO Media file produced by Google Inc.
  48. Language: English
  49. Service kind: Complete Main
  50. Default: Yes
  51. Forced: No

  52. Text
  53. ID: 3
  54. Format: S_TEXT/WEBVTT
  55. Codec ID: S_TEXT/WEBVTT
  56. Duration: 2 h 14 min
  57. Bit rate: 61 b/s
  58. Count of elements: 589
  59. Stream size: 60.4 KiB (0%)
  60. Default: Yes
  61. Forced: No
复制代码
西伯利亚321步卒师/The 321th Siberian [俄语俄字].321-ya.Sibirskaya.2017.1080p.WEB-DL.VP9.DDP5.1-PTerWEB 2.82GB-2.png








回复

使用道具 举报

懒得打字嘛,点击右侧快捷回复 【右侧内容,后台自定义】
您需要登录后才可以回帖 登录 | 立即加入

本版积分规则

Copyright © 2024 Comsenz Inc. Powered by 蓝光电影网

本站内容由用户自主分享和转载自互联网,转载目的在于传递更多信息,并不代表本网赞同其观点和对其真实性负责。

如有侵权、违反国家法律政策行为,请联系我们,我们会第一时间及时清除和处理!

举报反馈邮箱:4k1080.com@gmail.com

快速回复 返回顶部 返回列表