找回密码

查看: 187|回复: 0

[恐怖] 女鬼桥2:怨鬼楼[国语音轨/简繁英字幕].The.Bridge.Curse.Ritual.2023.1080p.NF.WEB-DL.DDP5.1.H264-TAG 3.96GB

[复制链接]
蓝光币
1840
发表于 2024-3-7 15:38:04 | 显示全部楼层 |阅读模式
女鬼桥2:怨鬼楼[国语音轨/简繁英字幕].The.Bridge.Curse.Ritual.2023.1080p.NF.WEB-DL.DDP5.1.H264-TAG 3.96GB-1.png

◎标  题 女鬼桥2:怨鬼楼
◎译  名 The Bridge Curse: Ritual
◎片  名 女鬼橋 2:怨鬼樓
◎年  代 2023
◎产  地 中国台湾
◎类  别 惊悚 / 可骇
◎语  言 汉语普通话
◎上映日期 2023-10-13(中国台湾)
◎IMDb评分 5.3/10 (393人评价)
◎IMDb链接 https://www.imdb.com/title/tt21962086/
◎豆瓣评分 5.8/10 (1945人评价)
◎豆瓣链接 https://movie.douban.com/subject/36001073/
◎片  长 101分钟
◎导  演 奚岳隆 Lester Shih
◎编  剧 张耿铭 Keng-Ming Chang
      郝柏翔 Po-Hsiang Hao
      吕莳媛 Lu Shih-Yuan
◎演  员 林哲熹 JC Lin
      王渝萱 Yu-Xuan Wang
      施柏宇 Patrick Shih
      胡释安 Shawn Hu
      张寗 Ning Chang
      严正岚 Vera Yen
      孟耿如 Summer Meng
      王品澔 Boris Wang
      席惟伦 Wei-Lun Xi
      詹子萱 TzuHsuan
      王肇玮 Linus Wang

◎简  介
    传闻中,文华大学位于阴阳交界之地,昔时设想师将修建物设想成镇煞用的「逆八卦」阵形,名为「大忍馆」,希望能用此镇煞阵形来困住孤魂野鬼免得伤人。校园怪谈连续传出且历历如绘:不但要人搭电梯却误闯阴间、还有人撞见在课堂舞蹈的女鬼、更有很多门生在早晨听到幽幽的歌声…   就读文华大学的连裕婷(王渝萱饰演),自从三年前哥哥在校园发买卖外后昏迷不醒,裕婷一向想完成哥哥用终生血汗设想的AR 游戏。但是,当她与同学们在进入最初实测阶段时,众人却起头发生古怪诡谲的灵异事务,而裕婷也在无意间发现哥哥昏迷不醒的缘由……

  1. ##### MediaInfo ######
  2. General
  3. Unique ID : 287800558029254450269904996555896683360 (0xD8845F0BAE5DE22DD0E2E39E5C807B60)
  4. Complete name : The.Bridge.Curse.Ritual.2023.1080p.NF.WEB-DL.DDP5.1.H264-TAG.mkv
  5. Duration : 1 h 41 min
  6. Overall bit rate mode : Variable
  7. Overall bit rate : 5 592 kb/s

  8. Video
  9. ID : 1
  10. Format : AVC
  11. Format/Info : Advanced Video Codec
  12. Format profile : Main@L4
  13. Format settings : CABAC / 3 Ref Frames
  14. Format settings, CABAC : Yes
  15. Format settings, Reference frames : 3 frames
  16. Codec ID : V_MPEG4/ISO/AVC
  17. Duration : 1 h 41 min
  18. Bit rate mode : Variable
  19. Bit rate : 5 000 kb/s
  20. Maximum bit rate : 7 500 kb/s
  21. Width : 1 920 pixels
  22. Height : 1 080 pixels
  23. Display aspect ratio : 16:9
  24. Frame rate mode : Constant
  25. Frame rate : 24.000 FPS
  26. Color space : YUV
  27. Chroma subsampling : 4:2:0
  28. Bit depth : 8 bits
  29. Scan type : Progressive
  30. Bits/(Pixel*Frame) : 0.100
  31. Stream size : 3.51 GiB (88%)
  32. Writing library : x264 core 148 r2727 7d026e8
  33. Encoding settings : cabac=1 / ref=3 / deblock=1:0:0 / analyse=0x1:0x111 / me=umh / subme=10 / psy=1 / psy_rd=1.00:0.00 / mixed_ref=1 / me_range=24 / chroma_me=1 / trellis=2 / 8x8dct=0 / cqm=0 / deadzone=21,11 / fast_pskip=1 / chroma_qp_offset=-2 / threads=6 / lookahead_threads=1 / sliced_threads=0 / nr=0 / decimate=1 / interlaced=0 / bluray_compat=0 / stitchable=1 / constrained_intra=0 / bframes=2 / b_pyramid=0 / b_adapt=2 / b_bias=0 / direct=3 / weightb=1 / open_gop=0 / weightp=2 / keyint=240 / keyint_min=121 / scenecut=0 / intra_refresh=0 / rc_lookahead=48 / rc=2pass / mbtree=1 / bitrate=5000 / ratetol=1.0 / qcomp=0.50 / qpmin=6 / qpmax=51 / qpstep=4 / cplxblur=20.0 / qblur=0.5 / vbv_maxrate=7500 / vbv_bufsize=10000 / nal_hrd=vbr / filler=0 / ip_ratio=1.40 / aq=1:1.00
  34. Default : Yes
  35. Forced : No

  36. Audio
  37. ID : 2
  38. Format : E-AC-3
  39. Format/Info : Enhanced AC-3
  40. Commercial name : Dolby Digital Plus
  41. Codec ID : A_EAC3
  42. Duration : 1 h 41 min
  43. Bit rate mode : Constant
  44. Bit rate : 640 kb/s
  45. Channel(s) : 6 channels
  46. Channel layout : L R C LFE Ls Rs
  47. Sampling rate : 48.0 kHz
  48. Frame rate : 31.250 FPS (1536 SPF)
  49. Compression mode : Lossy
  50. Stream size : 464 MiB (11%)
  51. Title : Chinese (Taiwan) [Dolby Digital Plus 5.1]
  52. Language : Chinese
  53. Service kind : Complete Main
  54. Default : Yes
  55. Forced : No

  56. Text #1
  57. ID : 3
  58. Format : UTF-8
  59. Codec ID : S_TEXT/UTF8
  60. Codec ID/Info : UTF-8 Plain Text
  61. Duration : 1 h 34 min
  62. Bit rate : 29 b/s
  63. Frame rate : 0.166 FPS
  64. Count of elements : 941
  65. Stream size : 20.7 KiB (0%)
  66. Title : 中文(简体)
  67. Language : Chinese
  68. Default : Yes
  69. Forced : No

  70. Text #2
  71. ID : 4
  72. Format : UTF-8
  73. Codec ID : S_TEXT/UTF8
  74. Codec ID/Info : UTF-8 Plain Text
  75. Duration : 1 h 33 min
  76. Bit rate : 27 b/s
  77. Frame rate : 0.156 FPS
  78. Count of elements : 878
  79. Stream size : 18.9 KiB (0%)
  80. Title : 中文 (繁體)
  81. Language : Chinese
  82. Default : No
  83. Forced : No

  84. Text #3
  85. ID : 5
  86. Format : UTF-8
  87. Codec ID : S_TEXT/UTF8
  88. Codec ID/Info : UTF-8 Plain Text
  89. Duration : 1 h 41 min
  90. Bit rate : 51 b/s
  91. Frame rate : 0.148 FPS
  92. Count of elements : 902
  93. Stream size : 38.2 KiB (0%)
  94. Title : ???????
  95. Language : Arabic
  96. Default : No
  97. Forced : No

  98. Text #4
  99. ID : 6
  100. Format : UTF-8
  101. Codec ID : S_TEXT/UTF8
  102. Codec ID/Info : UTF-8 Plain Text
  103. Duration : 1 h 39 min
  104. Bit rate : 31 b/s
  105. Frame rate : 0.157 FPS
  106. Count of elements : 942
  107. Stream size : 23.2 KiB (0%)
  108. Title : Deutsch
  109. Language : German
  110. Default : No
  111. Forced : No

  112. Text #5
  113. ID : 7
  114. Format : UTF-8
  115. Codec ID : S_TEXT/UTF8
  116. Codec ID/Info : UTF-8 Plain Text
  117. Duration : 1 h 34 min
  118. Bit rate : 32 b/s
  119. Frame rate : 0.159 FPS
  120. Count of elements : 898
  121. Stream size : 22.6 KiB (0%)
  122. Title : English
  123. Language : English
  124. Default : No
  125. Forced : No

  126. Text #6
  127. ID : 8
  128. Format : UTF-8
  129. Codec ID : S_TEXT/UTF8
  130. Codec ID/Info : UTF-8 Plain Text
  131. Duration : 1 h 41 min
  132. Bit rate : 31 b/s
  133. Frame rate : 0.149 FPS
  134. Count of elements : 904
  135. Stream size : 23.3 KiB (0%)
  136. Title : Espa?ol
  137. Language : Spanish
  138. Default : No
  139. Forced : No

  140. Text #7
  141. ID : 9
  142. Format : UTF-8
  143. Codec ID : S_TEXT/UTF8
  144. Codec ID/Info : UTF-8 Plain Text
  145. Duration : 1 h 39 min
  146. Bit rate : 32 b/s
  147. Frame rate : 0.158 FPS
  148. Count of elements : 948
  149. Stream size : 24.1 KiB (0%)
  150. Title : Espa?ol (Espa?a)
  151. Language : Spanish
  152. Default : No
  153. Forced : No

  154. Text #8
  155. ID : 10
  156. Format : UTF-8
  157. Codec ID : S_TEXT/UTF8
  158. Codec ID/Info : UTF-8 Plain Text
  159. Duration : 1 h 39 min
  160. Bit rate : 33 b/s
  161. Frame rate : 0.159 FPS
  162. Count of elements : 949
  163. Stream size : 24.3 KiB (0%)
  164. Title : Fran?ais
  165. Language : French
  166. Default : No
  167. Forced : No

  168. Text #9
  169. ID : 11
  170. Format : UTF-8
  171. Codec ID : S_TEXT/UTF8
  172. Codec ID/Info : UTF-8 Plain Text
  173. Duration : 1 h 41 min
  174. Bit rate : 31 b/s
  175. Frame rate : 0.143 FPS
  176. Count of elements : 868
  177. Stream size : 23.5 KiB (0%)
  178. Title : Bahasa Indonesia
  179. Language : Indonesian
  180. Default : No
  181. Forced : No

  182. Text #10
  183. ID : 12
  184. Format : UTF-8
  185. Codec ID : S_TEXT/UTF8
  186. Codec ID/Info : UTF-8 Plain Text
  187. Duration : 1 h 39 min
  188. Bit rate : 35 b/s
  189. Frame rate : 0.162 FPS
  190. Count of elements : 971
  191. Stream size : 26.3 KiB (0%)
  192. Title : 日本語
  193. Language : Japanese
  194. Default : No
  195. Forced : No

  196. Text #11
  197. ID : 13
  198. Format : UTF-8
  199. Codec ID : S_TEXT/UTF8
  200. Codec ID/Info : UTF-8 Plain Text
  201. Duration : 1 h 39 min
  202. Bit rate : 32 b/s
  203. Frame rate : 0.148 FPS
  204. Count of elements : 884
  205. Stream size : 24.0 KiB (0%)
  206. Title : ???
  207. Language : Korean
  208. Default : No
  209. Forced : No

  210. Text #12
  211. ID : 14
  212. Format : UTF-8
  213. Codec ID : S_TEXT/UTF8
  214. Codec ID/Info : UTF-8 Plain Text
  215. Duration : 1 h 41 min
  216. Bit rate : 28 b/s
  217. Frame rate : 0.145 FPS
  218. Count of elements : 879
  219. Stream size : 21.3 KiB (0%)
  220. Title : Bahasa Malaysia
  221. Language : Malay
  222. Default : No
  223. Forced : No

  224. Text #13
  225. ID : 15
  226. Format : UTF-8
  227. Codec ID : S_TEXT/UTF8
  228. Codec ID/Info : UTF-8 Plain Text
  229. Duration : 1 h 39 min
  230. Bit rate : 31 b/s
  231. Frame rate : 0.151 FPS
  232. Count of elements : 906
  233. Stream size : 23.1 KiB (0%)
  234. Title : Português
  235. Language : Portuguese
  236. Default : No
  237. Forced : No

  238. Text #14
  239. ID : 16
  240. Format : UTF-8
  241. Codec ID : S_TEXT/UTF8
  242. Codec ID/Info : UTF-8 Plain Text
  243. Duration : 1 h 41 min
  244. Bit rate : 29 b/s
  245. Frame rate : 0.143 FPS
  246. Count of elements : 867
  247. Stream size : 21.7 KiB (0%)
  248. Title : Português (Brasil)
  249. Language : Portuguese
  250. Default : No
  251. Forced : No

  252. Text #15
  253. ID : 17
  254. Format : UTF-8
  255. Codec ID : S_TEXT/UTF8
  256. Codec ID/Info : UTF-8 Plain Text
  257. Duration : 1 h 39 min
  258. Bit rate : 71 b/s
  259. Frame rate : 0.154 FPS
  260. Count of elements : 920
  261. Stream size : 52.4 KiB (0%)
  262. Title : ???
  263. Language : Thai
  264. Default : No
  265. Forced : No

  266. Text #16
  267. ID : 18
  268. Format : UTF-8
  269. Codec ID : S_TEXT/UTF8
  270. Codec ID/Info : UTF-8 Plain Text
  271. Duration : 1 h 39 min
  272. Bit rate : 31 b/s
  273. Frame rate : 0.149 FPS
  274. Count of elements : 890
  275. Stream size : 23.2 KiB (0%)
  276. Title : Türk?e
  277. Language : Turkish
  278. Default : No
  279. Forced : No

  280. Text #17
  281. ID : 19
  282. Format : UTF-8
  283. Codec ID : S_TEXT/UTF8
  284. Codec ID/Info : UTF-8 Plain Text
  285. Duration : 1 h 39 min
  286. Bit rate : 41 b/s
  287. Frame rate : 0.158 FPS
  288. Count of elements : 945
  289. Stream size : 30.3 KiB (0%)
  290. Title : Ti?ng Vi?t
  291. Language : Vietnamese
  292. Default : No
  293. Forced : No

  294. Menu
  295. 00:00:00.000 : en:Part 01
  296. 01:34:27.000 : en:Credits
复制代码
女鬼桥2:怨鬼楼[国语音轨/简繁英字幕].The.Bridge.Curse.Ritual.2023.1080p.NF.WEB-DL.DDP5.1.H264-TAG 3.96GB-3.png 女鬼桥2:怨鬼楼[国语音轨/简繁英字幕].The.Bridge.Curse.Ritual.2023.1080p.NF.WEB-DL.DDP5.1.H264-TAG 3.96GB-4.png 女鬼桥2:怨鬼楼[国语音轨/简繁英字幕].The.Bridge.Curse.Ritual.2023.1080p.NF.WEB-DL.DDP5.1.H264-TAG 3.96GB-5.png 女鬼桥2:怨鬼楼[国语音轨/简繁英字幕].The.Bridge.Curse.Ritual.2023.1080p.NF.WEB-DL.DDP5.1.H264-TAG 3.96GB-6.png 女鬼桥2:怨鬼楼[国语音轨/简繁英字幕].The.Bridge.Curse.Ritual.2023.1080p.NF.WEB-DL.DDP5.1.H264-TAG 3.96GB-7.png 女鬼桥2:怨鬼楼[国语音轨/简繁英字幕].The.Bridge.Curse.Ritual.2023.1080p.NF.WEB-DL.DDP5.1.H264-TAG 3.96GB-8.png









回复

使用道具 举报

懒得打字嘛,点击右侧快捷回复 【右侧内容,后台自定义】
您需要登录后才可以回帖 登录 | 立即加入

本版积分规则

Copyright © 2024 Comsenz Inc. Powered by 蓝光电影网

本站内容由用户自主分享和转载自互联网,转载目的在于传递更多信息,并不代表本网赞同其观点和对其真实性负责。

如有侵权、违反国家法律政策行为,请联系我们,我们会第一时间及时清除和处理!

举报反馈邮箱:4k1080.com@gmail.com

快速回复 返回顶部 返回列表