找回密码

查看: 13077|回复: 290

[动作] 周处除三害 [国语中字].The.Pig.the.Snake.and.the.Pigeon.2023.1080p.NF.WEB-DL.DDP5.1.H264-HHWEB 6.34GB

  [复制链接]
蓝光币
1839
发表于 2024-3-1 21:36:33 | 显示全部楼层 |阅读模式
周处除三害 [国语中字].The.Pig.the.Snake.and.the.Pigeon.2023.1080p.NF.WEB-DL.DDP5.1.H264-HHWEB 6.34GB-1.jpg
◎译  名 周处除三害 / The Pig, the Snake, and the Pigeon / The Pig, the Snake and the Pigeon
◎片  名 周處除三害
◎年  代 2023
◎产  地 中国台湾
◎类  别 行动 / 犯罪
◎语  言 汉语普通话 / 闽南语 / 粤语
◎上映日期 2023-10-06(中国台湾) / 2024-03-01(中国大陆)
◎IMDb评分  7.6/10 from 355 users
◎IMDb链接  https://www.imdb.com/title/tt29319990/
◎豆瓣评分 8.4/10 from 55,616 users
◎豆瓣链接 https://movie.douban.com/subject/36151692/
◎片  长 134分钟
◎导  演 黄精甫 / Ching-Po Wong
◎演  员 阮经天 / Ethan Juan (饰 陈桂林)
      袁富华 / Fu-wah Yuen (饰 香港仔)
      陈以文 / Yiwen Chen (饰 尊者)
      王净 / Gingle Wang (饰 程小美)
      李李仁 / Liren Li (饰 陈灰)
      谢琼煖 / Chiung-Hsuan Hsieh (饰 张贵卿)
      陈秉佑 /   (饰 贵卿儿)
      曾珮瑜 / Peggy Tseng (饰 萧湘湘)
      游安顺 / An-shun Yu (饰 林禄和假)
      刘子铨 / Tzu-Chuan Liu (饰 金毛)
      吴奕蓉 / Yi-Jung Wu
      黄迪扬 / Di-Yang Huang (饰 二师兄)
      曾向镇 / Benjamin Tsang (饰 鸭嘴帽)
      沈威年 / Nelson
      曾皓泽 / Haoze Zeng
      郑永岳 / Ark Zheng
      张启乐 / Ben Cheung
◎编  剧 黄精甫 / Ching-Po Wong
◎制  片  人 李烈 / Lieh Li
      黄江丰 / Roger Huang
      于仲渊
      王志祥
      吕彦萩
◎音  乐 卢律铭 / Lüming Lu
      保卜 / Baobu Badulu
      林思妤
      林孝亲
◎摄  影 王金城 / Jimmy Wong
      陈志荣 / Jhih Rong Chen
      李欣哲
◎剪  辑 黄精甫 / Ching-Po Wong
      林雍益 / Ian Lin
◎选  角 许凯翔
◎美  术 梁硕麟 / Shuo-Lin Liang
◎服  装 许力文 / Li Wen Hsu
◎音  效 简丰书 / Book Chien
      吴建纬
      汤湘竹 / Shiang-Chu Tang
      杨家慎
◎视觉殊效 郭宪聪 / Tomi Kuo
      王建程
      陈姵均
◎行动特技 洪昰颢 / Scott Hung

◎简  介 

  通缉犯陈桂林(阮经天 饰)生命将尽,却发现自己在通缉榜上只排名第三,他决心查出前两名通缉犯的着落,并将他们逐一撤除。陈桂林以为自己已成为今世的周处除三害,却没想到永久参不透的贪嗔痴,才是人生终要面临的罪与罚。
  影片援用的“周处除三害”典故,见于《晋书·周处传》和《世说新语》。据记录,少年周处体态魁梧,武力高强,却横行乡里,为邻人所厌。后周处单身斩杀猛虎孽蛟,他自己也浪子回头、改邪归正,至此三害皆除。

◎获奖情况 

  第60届台北金马影展 (2023)
  金马奖 最好导演(提名) 黄精甫
  金马奖 最好男配角(提名) 阮经天
  金马奖 最好行动设想 洪昰颢
  金马奖 最好原创配乐(提名) 保卜,林孝亲,卢律铭,林思妤
  金马奖 最好剪辑(提名) 黄精甫
  金马奖 最好音效(提名) 杨家慎,陈家俐,简丰书,汤湘竹
  金马奖 最好视觉结果(提名) 郭宪聪,陈姵均,王建程

  第42届香港电影金像奖 (2024)
  最好亚洲电影(提名)

  1. General
  2. Unique ID : 216710809315444345064267915100491797233 (0xA308FBD352FBA120307E73851D66D2F1)
  3. Complete name : The.Pig.the.Snake.and.the.Pigeon.2023.1080p.NF.WEB-DL.DDP5.1.H264-HHWEB.mkv
  4. Format : Matroska
  5. Format version : Version 4
  6. File size : 6.34 GiB
  7. Duration : 2 h 14 min
  8. Overall bit rate mode : Variable
  9. Overall bit rate : 6 769 kb/s
  10. Frame rate : 24.000 FPS
  11. Writing application : mkvmerge v79.0 (\'Funeral Pyres\') 64-bit
  12. Writing library : libebml v1.4.4 + libmatroska v1.7.1

  13. Video
  14. ID : 1
  15. Format : AVC
  16. Format/Info : Advanced Video Codec
  17. Format profile : High@L4
  18. Format settings : CABAC / 4 Ref Frames
  19. Format settings, CABAC : Yes
  20. Format settings, Reference frames : 4 frames
  21. Codec ID : V_MPEG4/ISO/AVC
  22. Duration : 2 h 14 min
  23. Bit rate mode : Variable
  24. Bit rate : 6 127 kb/s
  25. Maximum bit rate : 20.0 Mb/s
  26. Width : 1 920 pixels
  27. Height : 1 080 pixels
  28. Display aspect ratio : 16:9
  29. Frame rate mode : Constant
  30. Frame rate : 24.000 FPS
  31. Color space : YUV
  32. Chroma subsampling : 4:2:0
  33. Bit depth : 8 bits
  34. Scan type : Progressive
  35. Bits/(Pixel*Frame) : 0.123
  36. Stream size : 5.73 GiB (91%)
  37. Writing library : x264 core 148 r2727 7d026e8
  38. Encoding settings : cabac=1 / ref=4 / deblock=1:0:0 / analyse=0x3:0x111 / me=umh / subme=10 / psy=1 / psy_rd=1.00:0.00 / mixed_ref=1 / me_range=120 / chroma_me=1 / trellis=2 / 8x8dct=1 / cqm=0 / deadzone=21,11 / fast_pskip=1 / chroma_qp_offset=-2 / threads=6 / lookahead_threads=1 / sliced_threads=0 / nr=0 / decimate=1 / interlaced=0 / bluray_compat=0 / stitchable=1 / constrained_intra=0 / bframes=16 / b_pyramid=2 / b_adapt=2 / b_bias=0 / direct=3 / weightb=1 / open_gop=0 / weightp=2 / keyint=240 / keyint_min=121 / scenecut=0 / intra_refresh=0 / rc_lookahead=240 / rc=crf / mbtree=1 / crf=16.0 / qcomp=0.50 / qpmin=6 / qpmax=51 / qpstep=4 / vbv_maxrate=20000 / vbv_bufsize=25000 / crf_max=0.0 / nal_hrd=vbr / filler=0 / ip_ratio=1.40 / aq=1:0.80
  39. Default : Yes
  40. Forced : No

  41. Audio
  42. ID : 2
  43. Format : E-AC-3
  44. Format/Info : Enhanced AC-3
  45. Commercial name : Dolby Digital Plus
  46. Codec ID : A_EAC3
  47. Duration : 2 h 14 min
  48. Bit rate mode : Constant
  49. Bit rate : 640 kb/s
  50. Channel(s) : 6 channels
  51. Channel layout : L R C LFE Ls Rs
  52. Sampling rate : 48.0 kHz
  53. Frame rate : 31.250 FPS (1536 SPF)
  54. Compression mode : Lossy
  55. Stream size : 613 MiB (9%)
  56. Title : Chinese (Taiwan) [Dolby Digital Plus 5.1]
  57. Language : Chinese
  58. Service kind : Complete Main
  59. Default : Yes
  60. Forced : No

  61. Text #1
  62. ID : 3
  63. Format : UTF-8
  64. Codec ID : S_TEXT/UTF8
  65. Codec ID/Info : UTF-8 Plain Text
  66. Duration : 2 h 7 min
  67. Bit rate : 23 b/s
  68. Frame rate : 0.137 FPS
  69. Count of elements : 1041
  70. Stream size : 21.8 KiB (0%)
  71. Title : 中文(简体)
  72. Language : Chinese
  73. Default : Yes
  74. Forced : No

  75. Text #2
  76. ID : 4
  77. Format : UTF-8
  78. Codec ID : S_TEXT/UTF8
  79. Codec ID/Info : UTF-8 Plain Text
  80. Duration : 2 h 6 min
  81. Bit rate : 24 b/s
  82. Frame rate : 0.142 FPS
  83. Count of elements : 1080
  84. Stream size : 22.7 KiB (0%)
  85. Title : 中文 (繁體)
  86. Language : Chinese
  87. Default : No
  88. Forced : No

  89. Text #3
  90. ID : 5
  91. Format : UTF-8
  92. Codec ID : S_TEXT/UTF8
  93. Codec ID/Info : UTF-8 Plain Text
  94. Duration : 2 h 13 min
  95. Bit rate : 42 b/s
  96. Frame rate : 0.123 FPS
  97. Count of elements : 986
  98. Stream size : 41.2 KiB (0%)
  99. Title : العربية
  100. Language : Arabic
  101. Default : No
  102. Forced : No

  103. Text #4
  104. ID : 6
  105. Format : UTF-8
  106. Codec ID : S_TEXT/UTF8
  107. Codec ID/Info : UTF-8 Plain Text
  108. Duration : 2 h 13 min
  109. Bit rate : 28 b/s
  110. Frame rate : 0.123 FPS
  111. Count of elements : 986
  112. Stream size : 27.4 KiB (0%)
  113. Title : Deutsch
  114. Language : German
  115. Default : No
  116. Forced : No

  117. Text #5
  118. ID : 7
  119. Format : UTF-8
  120. Codec ID : S_TEXT/UTF8
  121. Codec ID/Info : UTF-8 Plain Text
  122. Duration : 2 h 7 min
  123. Bit rate : 27 b/s
  124. Frame rate : 0.129 FPS
  125. Count of elements : 985
  126. Stream size : 25.9 KiB (0%)
  127. Title : English
  128. Language : English
  129. Default : No
  130. Forced : No

  131. Text #6
  132. ID : 8
  133. Format : UTF-8
  134. Codec ID : S_TEXT/UTF8
  135. Codec ID/Info : UTF-8 Plain Text
  136. Duration : 2 h 13 min
  137. Bit rate : 25 b/s
  138. Frame rate : 0.123 FPS
  139. Count of elements : 986
  140. Stream size : 25.3 KiB (0%)
  141. Title : Español
  142. Language : Spanish
  143. Default : No
  144. Forced : No

  145. Text #7
  146. ID : 9
  147. Format : UTF-8
  148. Codec ID : S_TEXT/UTF8
  149. Codec ID/Info : UTF-8 Plain Text
  150. Duration : 2 h 13 min
  151. Bit rate : 26 b/s
  152. Frame rate : 0.123 FPS
  153. Count of elements : 986
  154. Stream size : 26.1 KiB (0%)
  155. Title : Español (España)
  156. Language : Spanish
  157. Default : No
  158. Forced : No

  159. Text #8
  160. ID : 10
  161. Format : UTF-8
  162. Codec ID : S_TEXT/UTF8
  163. Codec ID/Info : UTF-8 Plain Text
  164. Duration : 2 h 13 min
  165. Bit rate : 27 b/s
  166. Frame rate : 0.123 FPS
  167. Count of elements : 986
  168. Stream size : 27.2 KiB (0%)
  169. Title : Français
  170. Language : French
  171. Default : No
  172. Forced : No

  173. Text #9
  174. ID : 11
  175. Format : UTF-8
  176. Codec ID : S_TEXT/UTF8
  177. Codec ID/Info : UTF-8 Plain Text
  178. Duration : 2 h 13 min
  179. Bit rate : 27 b/s
  180. Frame rate : 0.123 FPS
  181. Count of elements : 986
  182. Stream size : 26.6 KiB (0%)
  183. Title : Bahasa Indonesia
  184. Language : Indonesian
  185. Default : No
  186. Forced : No

  187. Text #10
  188. ID : 12
  189. Format : UTF-8
  190. Codec ID : S_TEXT/UTF8
  191. Codec ID/Info : UTF-8 Plain Text
  192. Duration : 2 h 13 min
  193. Bit rate : 23 b/s
  194. Frame rate : 0.117 FPS
  195. Count of elements : 936
  196. Stream size : 23.3 KiB (0%)
  197. Title : 日本語
  198. Language : Japanese
  199. Default : No
  200. Forced : No

  201. Text #11
  202. ID : 13
  203. Format : UTF-8
  204. Codec ID : S_TEXT/UTF8
  205. Codec ID/Info : UTF-8 Plain Text
  206. Duration : 2 h 13 min
  207. Bit rate : 27 b/s
  208. Frame rate : 0.123 FPS
  209. Count of elements : 986
  210. Stream size : 26.7 KiB (0%)
  211. Title : 한국어
  212. Language : Korean
  213. Default : No
  214. Forced : No

  215. Text #12
  216. ID : 14
  217. Format : UTF-8
  218. Codec ID : S_TEXT/UTF8
  219. Codec ID/Info : UTF-8 Plain Text
  220. Duration : 2 h 13 min
  221. Bit rate : 27 b/s
  222. Frame rate : 0.123 FPS
  223. Count of elements : 986
  224. Stream size : 26.4 KiB (0%)
  225. Title : Bahasa Malaysia
  226. Language : Malay
  227. Default : No
  228. Forced : No

  229. Text #13
  230. ID : 15
  231. Format : UTF-8
  232. Codec ID : S_TEXT/UTF8
  233. Codec ID/Info : UTF-8 Plain Text
  234. Duration : 2 h 13 min
  235. Bit rate : 27 b/s
  236. Frame rate : 0.123 FPS
  237. Count of elements : 984
  238. Stream size : 26.7 KiB (0%)
  239. Title : Português
  240. Language : Portuguese
  241. Default : No
  242. Forced : No

  243. Text #14
  244. ID : 16
  245. Format : UTF-8
  246. Codec ID : S_TEXT/UTF8
  247. Codec ID/Info : UTF-8 Plain Text
  248. Duration : 2 h 13 min
  249. Bit rate : 27 b/s
  250. Frame rate : 0.124 FPS
  251. Count of elements : 991
  252. Stream size : 26.4 KiB (0%)
  253. Title : Português (Brasil)
  254. Language : Portuguese
  255. Default : No
  256. Forced : No

  257. Text #15
  258. ID : 17
  259. Format : UTF-8
  260. Codec ID : S_TEXT/UTF8
  261. Codec ID/Info : UTF-8 Plain Text
  262. Duration : 2 h 13 min
  263. Bit rate : 63 b/s
  264. Frame rate : 0.123 FPS
  265. Count of elements : 986
  266. Stream size : 61.9 KiB (0%)
  267. Title : ไทย
  268. Language : Thai
  269. Default : No
  270. Forced : No

  271. Text #16
  272. ID : 18
  273. Format : UTF-8
  274. Codec ID : S_TEXT/UTF8
  275. Codec ID/Info : UTF-8 Plain Text
  276. Duration : 2 h 13 min
  277. Bit rate : 26 b/s
  278. Frame rate : 0.123 FPS
  279. Count of elements : 986
  280. Stream size : 26.1 KiB (0%)
  281. Title : Türkçe
  282. Language : Turkish
  283. Default : No
  284. Forced : No

  285. Text #17
  286. ID : 19
  287. Format : UTF-8
  288. Codec ID : S_TEXT/UTF8
  289. Codec ID/Info : UTF-8 Plain Text
  290. Duration : 2 h 13 min
  291. Bit rate : 35 b/s
  292. Frame rate : 0.123 FPS
  293. Count of elements : 986
  294. Stream size : 34.3 KiB (0%)
  295. Title : Tiếng Việt
  296. Language : Vietnamese
  297. Default : No
  298. Forced : No

  299. Menu
  300. 00:00:00.000 : en:Part 01
  301. 02:09:37.000 : en:Credits
复制代码









回复

使用道具 举报

蓝光币
207
发表于 2024-3-2 10:59:47 | 显示全部楼层
楼主发贴辛苦了,谢谢楼主分享!我觉得蓝光电影网是注册对了!
回复 支持 1 反对 0

使用道具 举报

蓝光币
346
发表于 2024-3-2 11:16:31 | 显示全部楼层
楼主发贴辛苦了,谢谢楼主分享!我觉得蓝光电影网是注册对了!
回复 支持 反对

使用道具 举报

蓝光币
3
发表于 2024-3-2 11:33:05 | 显示全部楼层
感谢楼主给力666666666666666666666666666666666666
回复 支持 反对

使用道具 举报

蓝光币
1467
发表于 2024-3-2 12:32:16 | 显示全部楼层
楼主发贴辛苦了,谢谢楼主分享!我觉得蓝光电影网是注册对了!
回复 支持 反对

使用道具 举报

蓝光币
161
发表于 2024-3-2 15:37:40 | 显示全部楼层

这个帖子不回对不起自己!我想我是一天也不能离开蓝光电影网。
回复 支持 反对

使用道具 举报

蓝光币
136
发表于 2024-3-2 15:58:50 | 显示全部楼层
楼主发贴辛苦了,谢谢楼主分享!我觉得蓝光电影网是注册对了!
回复 支持 反对

使用道具 举报

蓝光币
1
发表于 2024-3-2 16:14:37 来自手机 | 显示全部楼层
这个是未删减版吗?
回复 支持 反对

使用道具 举报

蓝光币
6
发表于 2024-3-2 20:45:54 来自手机 | 显示全部楼层
感谢楼主.最强黑帮片!
回复 支持 反对

使用道具 举报

蓝光币
9
发表于 2024-3-2 22:29:01 | 显示全部楼层

这东西我收了!谢谢楼主!蓝光电影网真好!
回复 支持 反对

使用道具 举报

懒得打字嘛,点击右侧快捷回复 【右侧内容,后台自定义】
您需要登录后才可以回帖 登录 | 立即加入

本版积分规则

Copyright © 2024 Comsenz Inc. Powered by 蓝光电影网

本站内容由用户自主分享和转载自互联网,转载目的在于传递更多信息,并不代表本网赞同其观点和对其真实性负责。

如有侵权、违反国家法律政策行为,请联系我们,我们会第一时间及时清除和处理!

举报反馈邮箱:4k1080.com@gmail.com

快速回复 返回顶部 返回列表