找回密码

查看: 759|回复: 7

[2160p-WEB] 驴子.Dunki.2023.Hindi.2160p.NF.WEB-DL.DD 5.1.H.265-TheBiscuitMan 14.15GB

[复制链接]
蓝光币
1840
发表于 2024-2-27 14:54:07 | 显示全部楼层 |阅读模式


◎译  名 驴子 / 人在驴途
◎片  名 Dunki
◎年  代 2023
◎产  地 印度
◎类  别 剧情 / 笑剧
◎语  言 印地语
◎上映日期 2023-12-21(印度)
◎IMDb评星  ★★★★★★★☆☆☆
◎IMDb评分  6.8/10 from 67,824 users
◎IMDb链接  https://www.imdb.com/title/tt15428134/
◎豆瓣链接 https://movie.douban.com/subject/35882844/
◎片  长 160分钟
◎导  演 拉吉库马尔·希拉尼 / Rajkumar Hirani
◎演  员 沙鲁克·汗 / Shah Rukh Khan
      塔丝·潘努 / Taapsee Pannu
      博曼·伊拉尼 / Boman Irani
◎编  剧 拉吉库马尔·希拉尼 / Rajkumar Hirani
      阿希贾特·乔希 / Abhijat Joshi
◎简  介 
  来自旁遮普一个村落的四个朋友有一个配合的胡想:去英国。题目是他们既没有签证,也没有机票,而一位流兵答应带他们去胡想之地。
  谈到《驴子》,演员沙鲁克·汗暗示这部电影的英文名为“Donkey”。但它的题目是“Dunki”,由于在印度,有些人将“Donkey”发音为“Dunki”。 他进一步暗示,《驴子》是“一个关于人们想要回家的故事……当你终极接到呼唤时”。
  该片展现了印度人疯狂地操纵名为“驴子航班”的不法后门线路移民到加拿大和美国等国家的负面现象,但沙鲁克·汗也廓清说:“这是一部笑剧电影,他(指导演 Rajkumar Hirani)的电影总是笑剧和很多夹杂情感,以及关于国家的工作。所以,这是一部大型公路片,它穿越了天下各地,最初回到了印度”。
  1. General
  2. Unique ID : 28631790395964831132661807250728220121 (0x158A48417010157505DD0933DE5EF5D9)
  3. Complete name : Dunki.2023.Hindi.2160p.NF.WEB-DL.DD+5.1.H.265-TheBiscuitMan.mkv
  4. Format : Matroska
  5. Format version : Version 4
  6. File size : 14.2 GiB
  7. Duration : 2 h 40 min
  8. Overall bit rate : 12.7 Mb/s
  9. Frame rate : 24.000 FPS
  10. Writing application : mkvmerge v82.0 ('I'm The President') 64-bit
  11. Writing library : libebml v1.4.5 + libmatroska v1.7.1
  12. Video
  13. ID : 1
  14. Format : HEVC
  15. Format/Info : High Efficiency Video Coding
  16. Format profile : Main 10@L5@Main
  17. Codec ID : V_MPEGH/ISO/HEVC
  18. Duration : 2 h 40 min
  19. Bit rate : 12.0 Mb/s
  20. Width : 3 840 pixels
  21. Height : 2 160 pixels
  22. Display aspect ratio : 16:9
  23. Frame rate mode : Constant
  24. Frame rate : 24.000 FPS
  25. Color space : YUV
  26. Chroma subsampling : 4:2:0
  27. Bit depth : 10 bits
  28. Bits/(Pixel*Frame) : 0.060
  29. Stream size : 13.4 GiB (95%)
  30. Default : Yes
  31. Forced : No
  32. Color range : Limited
  33. Color primaries : BT.709
  34. Transfer characteristics : BT.709
  35. Matrix coefficients : BT.709
  36. Audio
  37. ID : 2
  38. Format : E-AC-3
  39. Format/Info : Enhanced AC-3
  40. Commercial name : Dolby Digital Plus
  41. Codec ID : A_EAC3
  42. Duration : 2 h 40 min
  43. Bit rate mode : Constant
  44. Bit rate : 640 kb/s
  45. Channel(s) : 6 channels
  46. Channel layout : L R C LFE Ls Rs
  47. Sampling rate : 48.0 kHz
  48. Frame rate : 31.250 FPS (1536 SPF)
  49. Compression mode : Lossy
  50. Stream size : 733 MiB (5%)
  51. Language : Hindi
  52. Service kind : Complete Main
  53. Default : Yes
  54. Forced : No
  55. Text #1
  56. ID : 3
  57. Format : UTF-8
  58. Codec ID : S_TEXT/UTF8
  59. Codec ID/Info : UTF-8 Plain Text
  60. Duration : 2 h 38 min
  61. Bit rate : 58 b/s
  62. Frame rate : 0.205 FPS
  63. Count of elements : 1953
  64. Stream size : 67.8 KiB (0%)
  65. Language : Dutch
  66. Default : No
  67. Forced : No
  68. Text #2
  69. ID : 4
  70. Format : UTF-8
  71. Codec ID : S_TEXT/UTF8
  72. Codec ID/Info : UTF-8 Plain Text
  73. Duration : 2 h 32 min
  74. Bit rate : 57 b/s
  75. Frame rate : 0.250 FPS
  76. Count of elements : 2288
  77. Stream size : 64.2 KiB (0%)
  78. Language : English
  79. Default : Yes
  80. Forced : No
  81. Text #3
  82. ID : 5
  83. Format : UTF-8
  84. Codec ID : S_TEXT/UTF8
  85. Codec ID/Info : UTF-8 Plain Text
  86. Duration : 2 h 32 min
  87. Bit rate : 72 b/s
  88. Frame rate : 0.256 FPS
  89. Count of elements : 2350
  90. Stream size : 80.6 KiB (0%)
  91. Language : French
  92. Default : No
  93. Forced : No
  94. Text #4
  95. ID : 6
  96. Format : UTF-8
  97. Codec ID : S_TEXT/UTF8
  98. Codec ID/Info : UTF-8 Plain Text
  99. Duration : 2 h 38 min
  100. Bit rate : 69 b/s
  101. Frame rate : 0.251 FPS
  102. Count of elements : 2388
  103. Stream size : 81.2 KiB (0%)
  104. Language : German
  105. Default : No
  106. Forced : No
  107. Text #5
  108. ID : 7
  109. Format : UTF-8
  110. Codec ID : S_TEXT/UTF8
  111. Codec ID/Info : UTF-8 Plain Text
  112. Duration : 2 h 32 min
  113. Bit rate : 160 b/s
  114. Frame rate : 0.259 FPS
  115. Count of elements : 2376
  116. Stream size : 180 KiB (0%)
  117. Language : Hindi
  118. Default : No
  119. Forced : No
  120. Text #6
  121. ID : 8
  122. Format : UTF-8
  123. Codec ID : S_TEXT/UTF8
  124. Codec ID/Info : UTF-8 Plain Text
  125. Duration : 2 h 32 min
  126. Bit rate : 176 b/s
  127. Frame rate : 0.261 FPS
  128. Count of elements : 2392
  129. Stream size : 197 KiB (0%)
  130. Title : [SDH]
  131. Language : Hindi
  132. Default : No
  133. Forced : No
  134. Text #7
  135. ID : 9
  136. Format : UTF-8
  137. Codec ID : S_TEXT/UTF8
  138. Codec ID/Info : UTF-8 Plain Text
  139. Duration : 2 h 24 min
  140. Bit rate : 1 b/s
  141. Frame rate : 0.006 FPS
  142. Count of elements : 56
  143. Stream size : 1.14 KiB (0%)
  144. Title : [Forced]
  145. Language : Hindi
  146. Default : No
  147. Forced : Yes
  148. Text #8
  149. ID : 10
  150. Format : UTF-8
  151. Codec ID : S_TEXT/UTF8
  152. Codec ID/Info : UTF-8 Plain Text
  153. Duration : 2 h 39 min
  154. Bit rate : 61 b/s
  155. Frame rate : 0.246 FPS
  156. Count of elements : 2362
  157. Stream size : 71.9 KiB (0%)
  158. Language : Indonesian
  159. Default : No
  160. Forced : No
  161. Text #9
  162. ID : 11
  163. Format : UTF-8
  164. Codec ID : S_TEXT/UTF8
  165. Codec ID/Info : UTF-8 Plain Text
  166. Duration : 2 h 38 min
  167. Bit rate : 64 b/s
  168. Frame rate : 0.247 FPS
  169. Count of elements : 2355
  170. Stream size : 74.8 KiB (0%)
  171. Title : [Latin American]
  172. Language : Spanish (Latin America)
  173. Default : No
  174. Forced : No
  175. Text #10
  176. ID : 12
  177. Format : UTF-8
  178. Codec ID : S_TEXT/UTF8
  179. Codec ID/Info : UTF-8 Plain Text
  180. Duration : 2 h 38 min
  181. Bit rate : 62 b/s
  182. Frame rate : 0.246 FPS
  183. Count of elements : 2346
  184. Stream size : 72.5 KiB (0%)
  185. Language : Turkish
  186. Default : No
  187. Forced : No
复制代码









回复

使用道具 举报

蓝光币
757
发表于 2024-2-27 19:37:15 | 显示全部楼层
楼主发贴辛苦了,谢谢楼主分享!我觉得蓝光电影网是注册对了!
回复 支持 反对

使用道具 举报

蓝光币
478
发表于 2024-2-28 15:36:31 | 显示全部楼层

既然你诚信诚意的推荐了,那我就勉为其难的看看吧!蓝光电影网不走平凡路。
回复 支持 反对

使用道具 举报

蓝光币
691
发表于 2024-2-28 22:07:30 | 显示全部楼层
楼主发贴辛苦了,谢谢楼主分享!我觉得蓝光电影网是注册对了!
回复 支持 反对

使用道具 举报

蓝光币
1751
发表于 2024-2-29 20:11:45 | 显示全部楼层
印度阿三的电影,除了歌舞,真是很难接受。
回复 支持 反对

使用道具 举报

蓝光币
107
发表于 2024-3-5 11:40:56 | 显示全部楼层
楼主发贴辛苦了
回复 支持 反对

使用道具 举报

蓝光币
94
发表于 2024-3-6 23:10:55 | 显示全部楼层
谢谢楼主分享
回复 支持 反对

使用道具 举报

蓝光币
75
发表于 2024-3-10 07:23:00 | 显示全部楼层
楼主发贴辛苦了,谢谢楼主分享!我觉得蓝光电影网是注册对了!
回复 支持 反对

使用道具 举报

懒得打字嘛,点击右侧快捷回复 【右侧内容,后台自定义】
您需要登录后才可以回帖 登录 | 立即加入

本版积分规则

Copyright © 2024 Comsenz Inc. Powered by 蓝光电影网

本站内容由用户自主分享和转载自互联网,转载目的在于传递更多信息,并不代表本网赞同其观点和对其真实性负责。

如有侵权、违反国家法律政策行为,请联系我们,我们会第一时间及时清除和处理!

举报反馈邮箱:4k1080.com@gmail.com

快速回复 返回顶部 返回列表