找回密码

查看: 5811|回复: 85

[剧情] 孤注一掷[国语配音/中文字幕].No.More.Bets.2023.1080p.WEB-DL.H264.AAC.2.0-TAG 3.36GB

  [复制链接]
蓝光币
1839
发表于 2024-2-6 21:48:50 | 显示全部楼层 |阅读模式
孤注一掷[国语配音/中笔墨幕].No.More.Bets.2023.1080p.WEB-DL.H264.AAC.2.0-TAG 3.36GB-1.png

◎标  题 孤注一掷
◎译  名 打鱼行动 / 打鱼之罢休一搏 / 罢休一搏 / No More Bets
◎年  代 2023
◎产  地 中国大陆
◎类  别 剧情 / 犯罪
◎语  言 汉语普通话
◎上映日期 2023-08-08(中国大陆) / 2023-08-05(大范围点映)
◎IMDb链接 https://www.imdb.com/title/tt28076784/
◎豆瓣评分 6.9/10 (538893人评价)
◎豆瓣链接 https://movie.douban.com/subject/35267224/
◎片  长 130分钟
◎导  演 申奥 Ao Shen
◎编  剧 申奥 Ao Shen
      张艺凡 Emily Zhang
      许渌洋 Luyang Xu
◎演  员 张艺兴 Yixing Zhang
      金晨 Chen Jin
      咏梅 Mei Yong
      王传君 Chuanjun Wang
      王大陆 Talu Wang
      周也 Ye Zhou
      孙阳 Sunny Sun
      邓萃雯 Sheren Tang
      林威 Wai Lam
      黄艺馨 Yixin Huang
      王议伟 Yiwei Wang
      辛鹏 Peng Xin
      汤加文 Carmen Tong
      刘敬宇 Jim Liu
      林韦辰 Wai-Sun Lam
      生港帅 Gangshuai Sheng
      洪助升 Aiden Hung
      李东海 Donghai Li
      邓芯圻 Xinqi Deng
      舒美铃 Meiling Shu
      张宁 Ning Zhang

◎简  介
    南亚某国,由于当地政府监管不力以及成心纵容,欺骗产业极为兴盛,炒股、挖币、网游、电商、博彩等,各类手段层见叠出,花样百出。某个科技产业园内,欺骗团伙头子陆司理(王传君 饰)张狂狂妄,用狡计和暴力统治着这个血泪王国。法式员潘生(张艺兴 饰)分开之前的公司,按照高薪招聘启迪走入了陆司理设下的圈套,成为一位操纵收集欺骗的狗推。由于恋慕闺蜜的生活,模特梁安娜(金晨 饰)也飞到异国异乡寻觅机遇,成果护照被没收,成为陆司理手下操纵美色欺骗的工具。进入人世炼狱,恍如再也见不到在世进来的希望……   本片以缅北欺骗案为蓝本改编。

  1. ##### MediaInfo ######
  2. General
  3. Unique ID : 189044695971554442850310232497001096230 (0x8E38AF1FDC93498BB782AFB241D06426)
  4. Complete name : No.More.Bets.2023.1080p.WEB-DL.H264.AAC.2.0-TAG.mkv
  5. Duration : 2 h 9 min
  6. Overall bit rate : 3 697 kb/s

  7. Video
  8. ID : 1
  9. Format : AVC
  10. Format/Info : Advanced Video Codec
  11. Format profile : Main@L4
  12. Format settings : CABAC / 4 Ref Frames
  13. Format settings, CABAC : Yes
  14. Format settings, Reference frames : 4 frames
  15. Codec ID : V_MPEG4/ISO/AVC
  16. Duration : 2 h 9 min
  17. Bit rate : 3 630 kb/s
  18. Width : 1 920 pixels
  19. Height : 1 080 pixels
  20. Display aspect ratio : 16:9
  21. Frame rate mode : Constant
  22. Frame rate : 25.000 FPS
  23. Color space : YUV
  24. Chroma subsampling : 4:2:0
  25. Bit depth : 8 bits
  26. Scan type : Progressive
  27. Bits/(Pixel*Frame) : 0.070
  28. Stream size : 3.29 GiB (98%)
  29. Writing library : x264 core 164 r3085 0bb85e8
  30. Encoding settings : cabac=1 / ref=2 / deblock=1:0:0 / analyse=0x1:0x111 / me=hex / subme=4 / psy=0 / mixed_ref=0 / me_range=16 / chroma_me=1 / trellis=1 / 8x8dct=0 / cqm=0 / deadzone=21,11 / fast_pskip=1 / chroma_qp_offset=0 / threads=34 / lookahead_threads=8 / sliced_threads=0 / nr=0 / decimate=1 / interlaced=0 / bluray_compat=0 / constrained_intra=0 / bframes=3 / b_pyramid=2 / b_adapt=1 / b_bias=0 / direct=1 / weightb=1 / open_gop=0 / weightp=1 / keyint=250 / keyint_min=25 / scenecut=40 / intra_refresh=0 / rc_lookahead=20 / rc=crf / mbtree=1 / crf=18.0 / qcomp=0.60 / qpmin=0 / qpmax=69 / qpstep=4 / ip_ratio=1.40 / aq=2:1.00
  31. Default : Yes
  32. Forced : No

  33. Audio
  34. ID : 2
  35. Format : AAC LC
  36. Format/Info : Advanced Audio Codec Low Complexity
  37. Codec ID : A_AAC-2
  38. Duration : 2 h 9 min
  39. Bit rate : 64.0 kb/s
  40. Channel(s) : 2 channels
  41. Channel layout : L R
  42. Sampling rate : 44.1 kHz
  43. Frame rate : 43.066 FPS (1024 SPF)
  44. Compression mode : Lossy
  45. Delay relative to video : -46 ms
  46. Stream size : 59.5 MiB (2%)
  47. Default : Yes
  48. Forced : No
复制代码
孤注一掷[国语配音/中笔墨幕].No.More.Bets.2023.1080p.WEB-DL.H264.AAC.2.0-TAG 3.36GB-2.png 孤注一掷[国语配音/中笔墨幕].No.More.Bets.2023.1080p.WEB-DL.H264.AAC.2.0-TAG 3.36GB-3.png 孤注一掷[国语配音/中笔墨幕].No.More.Bets.2023.1080p.WEB-DL.H264.AAC.2.0-TAG 3.36GB-4.png 孤注一掷[国语配音/中笔墨幕].No.More.Bets.2023.1080p.WEB-DL.H264.AAC.2.0-TAG 3.36GB-5.png 孤注一掷[国语配音/中笔墨幕].No.More.Bets.2023.1080p.WEB-DL.H264.AAC.2.0-TAG 3.36GB-6.png 孤注一掷[国语配音/中笔墨幕].No.More.Bets.2023.1080p.WEB-DL.H264.AAC.2.0-TAG 3.36GB-7.png











回复

使用道具 举报

蓝光币
2
发表于 2024-2-8 08:43:23 | 显示全部楼层
在电影院看过,还是不错的
回复 支持 反对

使用道具 举报

蓝光币
59
发表于 2024-2-8 09:27:37 | 显示全部楼层
电影院看过了
回复 支持 反对

使用道具 举报

蓝光币
25
发表于 2024-2-8 14:50:30 | 显示全部楼层
期待非vip也能下载的一天
回复 支持 反对

使用道具 举报

蓝光币
233
发表于 2024-2-10 12:28:56 | 显示全部楼层

既然你诚信诚意的推荐了,那我就勉为其难的看看吧!蓝光电影网不走平凡路。
回复 支持 反对

使用道具 举报

蓝光币
7
发表于 2024-2-11 21:11:57 | 显示全部楼层
666666666666666666666666666
回复 支持 反对

使用道具 举报

蓝光币
71
发表于 2024-2-14 00:09:59 | 显示全部楼层

这个帖子不回对不起自己!我想我是一天也不能离开蓝光电影网。
回复 支持 反对

使用道具 举报

蓝光币
260
发表于 2024-2-15 08:45:30 | 显示全部楼层

这东西我收了!谢谢楼主!蓝光电影网真好!
回复 支持 反对

使用道具 举报

蓝光币
328
发表于 2024-2-15 22:01:13 | 显示全部楼层
楼主发贴辛苦了,谢谢楼主分享!我觉得蓝光电影网是注册对了!
回复 支持 反对

使用道具 举报

蓝光币
66
发表于 2024-2-16 22:44:12 | 显示全部楼层
等了好久终于等到了
回复 支持 反对

使用道具 举报

懒得打字嘛,点击右侧快捷回复 【右侧内容,后台自定义】
您需要登录后才可以回帖 登录 | 立即加入

本版积分规则

Copyright © 2024 Comsenz Inc. Powered by 蓝光电影网

本站内容由用户自主分享和转载自互联网,转载目的在于传递更多信息,并不代表本网赞同其观点和对其真实性负责。

如有侵权、违反国家法律政策行为,请联系我们,我们会第一时间及时清除和处理!

举报反馈邮箱:4k1080.com@gmail.com

快速回复 返回顶部 返回列表