找回密码

查看: 979|回复: 21

[惊悚] 隔山有眼.The.Hills.Have.Eyes.1.2006.1080p.BluRay.HEVC.DTS.5.1.x265-PANAM 8.37GB

[复制链接]
蓝光币
1858
发表于 2024-1-25 01:28:56 | 显示全部楼层 |阅读模式


◎译  名 隔山有眼 / 魔山(台) / 深山大屠杀
◎片  名 The Hills Have Eyes
◎年  代 2006
◎产  地 美国
◎类  别 惊悚 / 可骇
◎语  言 英语
◎上映日期 2006-03-10(美国)
◎IMDb评星  ★★★★★★✦☆☆☆
◎IMDb评分  6.4/10 from 181,576 users
◎IMDb链接  https://www.imdb.com/title/tt0454841/
◎豆瓣评星 ★★★✦☆
◎豆瓣评分 6.8/10 from 45,225 users
◎豆瓣链接 https://movie.douban.com/subject/1453067/
◎片  长 107 分钟 / 108 分钟(未分级版)
◎导  演 亚历山大·阿嘉 / Alexandre Aja
◎演  员 亚伦·斯坦福 / Aaron Stanford
      凯瑟琳·奎南 / Kathleen Quinlan
      凡妮莎·肖 / Vinessa Shaw
      艾米莉·德瑞文 / Emilie de Ravin
      泰德·拉文 / Ted Levine
      罗伯特·乔伊 / Robert Joy
      德斯蒙德·奥斯基 / Desmond Askew
      比利·德拉戈 / Billy Drago
      丹·伯德 / Dan Byrd
      格里高利·尼克特洛 / Gregory Nicotero
      迈克尔·贝利·史姑娘 / Michael Bailey Smith
      汤姆·鲍尔 / Tom Bower
      劳拉·奥尔蒂斯 / Laura Ortiz
◎编  剧 韦斯·克雷文 / Wes Craven
      亚历山大·阿嘉 / Alexandre Aja
      格莱高利·莱瓦瑟 / Grégory Levasseur
◎制  片  人 玛丽安·马达莱娜 / Marianne Maddalena
      Peter Locke Peter Locke
      韦斯·克雷文 / Wes Craven
◎摄  影 马克西姆·亚历山大 / Maxime Alexandre
◎美  术 约瑟夫·C·内梅克三世 / Joseph C. Nemec III
      塔玛拉·马里尼 / Tamara Marini
      亚历山德拉·奎尔佐拉 / Alessandra Querzola
◎服  装 丹尼·格利克尔 / Danny Glicker
◎化  妆 格里高利·尼克特洛 / Gregory Nicotero
      Mark Boley Mark Boley
      霍华德·伯杰 / Howard Berger
       Abounouom Mariam Lee
      杰克·加伯 / Jake Garber
      格雷迪·霍德尔 / Grady Holder
      Mario Michisanti Mario Michisanti
      斯科特·帕顿 / Scott Patton
      Ron Pipes Ron Pipes
      Massimiliano Duranti Massimiliano Duranti
◎副  导  演 Adil Abdelwahab Adil Abdelwahab
      Jon-Luke Lourens Jon-Luke Lourens
◎视觉殊效 苏基·帕克 / Sookie Park
      贾米森·戈伊 / Jamison Scott Goei
      Laurent Ben-Mimoun Laurent Ben-Mimoun
◎简  介 
  老汉妻鲍勃·卡特(泰德·列文饰)与艾塞尔(凯瑟琳·昆兰)为了庆贺他们的成婚纪念日,带着家人开车做一次穿越国境的公路远程观光。本希望借此次观光促进家庭成员之间的豪情,但观光中发生的各种磨擦却不时考验着这个家庭。
  旅程渐渐进入漫漫黄沙荒无人烟的地带,在一次夜晚扎营时休息时,他们遭遭到了一群怪物的攻击,本来此处四周曾有一个烧毁美军研制核兵器的基地,核尝试让四周一个村落的人们遭遭到了可怕的核辐射,活下的人身材变的畸形且性情嗜血而暴力,他们伏击这一家人,对他们停止残暴的捕杀,原本老实懦弱的半子达乌·布库威斯基(亚伦·斯坦福德饰)决心抖擞起来,做出最激烈的还击。
  1. General
  2. Unique ID                                : 328145322358710469422021871518715818848 (0xF6DE7D80A390DAB185D189B607B93360)
  3. Complete name                            : The.Hills.Have.Eyes.1.2006.1080p.BluRay.HEVC.DTS.5.1.x265-PANAM.mkv
  4. Format                                   : Matroska
  5. Format version                           : Version 4
  6. File size                                : 8.37 GiB
  7. Duration                                 : 1 h 47 min
  8. Overall bit rate                         : 11.2 Mb/s
  9. Frame rate                               : 23.976 FPS
  10. Writing library                          : Lavf57.3.100
  11. Video
  12. ID                                       : 1
  13. Format                                   : HEVC
  14. Format/Info                              : High Efficiency Video Coding
  15. Format profile                           : Main@L5@High
  16. Codec ID                                 : V_MPEGH/ISO/HEVC
  17. Duration                                 : 1 h 47 min
  18. Bit rate                                 : 9 496 kb/s
  19. Width                                    : 1 920 pixels
  20. Height                                   : 1 080 pixels
  21. Display aspect ratio                     : 16:9
  22. Frame rate mode                          : Constant
  23. Frame rate                               : 23.976 (24000/1001) FPS
  24. Color space                              : YUV
  25. Chroma subsampling                       : 4:2:0
  26. Bit depth                                : 8 bits
  27. Bits/(Pixel*Frame)                       : 0.191
  28. Stream size                              : 7.10 GiB (85%)
  29. Default                                  : Yes
  30. Forced                                   : No
  31. Color range                              : Limited
  32. Color primaries                          : BT.709
  33. Transfer characteristics                 : BT.709
  34. Matrix coefficients                      : BT.709
  35. Audio
  36. ID                                       : 2
  37. Format                                   : DTS
  38. Format/Info                              : Digital Theater Systems
  39. Codec ID                                 : A_DTS
  40. Duration                                 : 1 h 47 min
  41. Bit rate mode                            : Constant
  42. Bit rate                                 : 1 473 kb/s
  43. Channel(s)                               : 6 channels
  44. Channel layout                           : C L R Ls Rs LFE
  45. Sampling rate                            : 48.0 kHz
  46. Frame rate                               : 93.750 FPS (512 SPF)
  47. Bit depth                                : 16 bits
  48. Compression mode                         : Lossy
  49. Stream size                              : 1.10 GiB (13%)
  50. Language                                 : English
  51. Default                                  : Yes
  52. Forced                                   : No
复制代码









回复

使用道具 举报

蓝光币
71
发表于 2024-1-25 11:32:35 | 显示全部楼层

这个帖子不回对不起自己!我想我是一天也不能离开蓝光电影网。
回复

使用道具 举报

蓝光币
27
发表于 2024-1-25 11:44:43 | 显示全部楼层

楼主,大恩不言谢了!蓝光电影网是最棒的!
回复

使用道具 举报

蓝光币
93
发表于 2024-1-25 15:24:20 | 显示全部楼层
谢谢楼主分享。蓝光电影网是最棒的!
回复

使用道具 举报

蓝光币
1286
发表于 2024-1-25 17:26:44 | 显示全部楼层

这东西我收了!谢谢楼主!蓝光电影网真好!
回复

使用道具 举报

蓝光币
214
发表于 2024-1-25 18:40:20 | 显示全部楼层
楼主发贴辛苦了,谢谢楼主分享!我觉得蓝光电影网是注册对了!
回复

使用道具 举报

蓝光币
629
发表于 2024-1-25 20:06:49 | 显示全部楼层
楼主发贴辛苦了,谢谢楼主分享!我觉得蓝光电影网是注册对了!
回复

使用道具 举报

蓝光币
110
发表于 2024-1-25 23:33:07 | 显示全部楼层
谢谢分享!!!!!
回复

使用道具 举报

蓝光币
82
发表于 2024-1-26 00:23:50 | 显示全部楼层


楼主,大恩不言谢了!蓝光电影网是最棒的!
回复

使用道具 举报

蓝光币
1002
发表于 2024-1-27 06:40:24 | 显示全部楼层

既然你诚信诚意的推荐了,那我就勉为其难的看看吧!蓝光电影网不走平凡路。
回复

使用道具 举报

懒得打字嘛,点击右侧快捷回复 【右侧内容,后台自定义】
您需要登录后才可以回帖 登录 | 立即加入

本版积分规则

Copyright © 2024 Comsenz Inc. Powered by 蓝光电影网

本站内容由用户自主分享和转载自互联网,转载目的在于传递更多信息,并不代表本网赞同其观点和对其真实性负责。

如有侵权、违反国家法律政策行为,请联系我们,我们会第一时间及时清除和处理!

举报反馈邮箱:4k1080.com@gmail.com

快速回复 返回顶部 返回列表