找回密码

查看: 1571|回复: 25

[惊悚] 恐怖极限游戏.Would.You.Rather.2012.1080p.BluRay.HEVC.AVC.DTS.5.1.x265-PANAM 4.19GB

[复制链接]
蓝光币
1858
发表于 2024-1-21 21:03:17 | 显示全部楼层 |阅读模式


◎译  名 可骇极限游戏 / 灭亡飨宴 / 你宁可
◎片  名 Would You Rather
◎年  代 2012
◎产  地 美国
◎类  别 惊悚 / 可骇
◎语  言 英语
◎上映日期 2012-10-14(美国)
◎IMDb评星  ★★★★★✦☆☆☆☆
◎IMDb评分  5.7/10 from 44,823 users
◎IMDb链接  https://www.imdb.com/title/tt1999995/
◎豆瓣评星 ★★★☆☆
◎豆瓣评分 5.5/10 from 5,445 users
◎豆瓣链接 https://movie.douban.com/subject/6957289/
◎片  长 93分钟
◎导  演 大卫·盖伊·利维 / David Guy Levy
◎演  员 布里特妮·斯诺 / Brittany Snow
      杰弗瑞·考姆斯 / Jeffrey Combs
      约翰尼·科瓦内 / Jonny Coyne
      小拉里·吉拉德 / Larry Gilliard Jr.
      安维尔·乔卡亚 / Enver Gjokaj
      萨莎·格蕾 / Sasha Grey
      约翰·赫德 / John Heard
      查理·霍夫赫梅尔 / Charlie Hofheimer
      洛根·米勒 / Logan Miller
      朱恩·斯奎布 / June Squibb
      埃迪·斯蒂普斯 / Eddie Steeples
      罗宾·泰勒 / Robin Lord Taylor
◎编  剧 史蒂芬·斯拉克顿豪芬 / Steffen Schlachtenhaufen
◎简  介 
  美丽善良的爱丽丝(布兰特妮·斯诺 Brittany Snow 饰)为钱费劲心机,她的弟弟雷利(洛根·米勒 Logan Miller 饰)罹患沉痾,急需停止骨髓移植。在这般困难时节,她遭到名为薛普•兰柏特的慈善家约请,行将加入某角逐以获得兰柏特基金会的救济。夜幕来临,爱丽丝怀着忐忑的心搭车来到基金会位于郊外的奢华别墅,此时这里已经有七名分歧年龄但都为经济所困扰的陌生人等待。
  晚宴如期举行,强势的兰柏特拒绝任何人的异议,用金钱改变一切人的想法。接下来的角逐,八名参赛者要停止连续串足以应战人类承受极限的挑选题,成功者将获得丰富的奖金,期待失利者和拒绝服从人士的则是……
  1. General
  2. Unique ID                                : 11584882301813430974566024551883792912 (0x8B72ACBD4F0C35851AEBA0D2166E210)
  3. Complete name                            : C:\Would.You.Rather.2012.1080p.BluRay.HEVC.AVC.DTS.5.1.x265-PANAM.mkv
  4. Format                                   : Matroska
  5. Format version                           : Version 4
  6. File size                                : 4.19 GiB
  7. Duration                                 : 1 h 33 min
  8. Overall bit rate                         : 6 431 kb/s
  9. Frame rate                               : 23.976 FPS
  10. Writing library                          : Lavf57.3.100
  11. Video
  12. ID                                       : 1
  13. Format                                   : HEVC
  14. Format/Info                              : High Efficiency Video Coding
  15. Format profile                           : Main@L5@High
  16. Codec ID                                 : V_MPEGH/ISO/HEVC
  17. Duration                                 : 1 h 33 min
  18. Bit rate                                 : 4 830 kb/s
  19. Width                                    : 1 920 pixels
  20. Height                                   : 1 080 pixels
  21. Display aspect ratio                     : 16:9
  22. Frame rate mode                          : Constant
  23. Frame rate                               : 23.976 (24000/1001) FPS
  24. Color space                              : YUV
  25. Chroma subsampling                       : 4:2:0
  26. Bit depth                                : 8 bits
  27. Bits/(Pixel*Frame)                       : 0.097
  28. Stream size                              : 3.15 GiB (75%)
  29. Default                                  : Yes
  30. Forced                                   : No
  31. Color range                              : Limited
  32. Color primaries                          : BT.709
  33. Transfer characteristics                 : BT.709
  34. Matrix coefficients                      : BT.709
  35. Audio
  36. ID                                       : 2
  37. Format                                   : DTS
  38. Format/Info                              : Digital Theater Systems
  39. Codec ID                                 : A_DTS
  40. Duration                                 : 1 h 33 min
  41. Bit rate mode                            : Constant
  42. Bit rate                                 : 1 473 kb/s
  43. Channel(s)                               : 6 channels
  44. Channel layout                           : C L R Ls Rs LFE
  45. Sampling rate                            : 48.0 kHz
  46. Frame rate                               : 93.750 FPS (512 SPF)
  47. Bit depth                                : 16 bits
  48. Compression mode                         : Lossy
  49. Stream size                              : 984 MiB (23%)
  50. Title                                    : English
  51. Language                                 : English
  52. Default                                  : Yes
  53. Forced                                   : No
  54. Text #1
  55. ID                                       : 3
  56. Format                                   : PGS
  57. Codec ID                                 : S_HDMV/PGS
  58. Codec ID/Info                            : Picture based subtitle format used on BDs/HD-DVDs
  59. Title                                    : English
  60. Language                                 : English
  61. Default                                  : Yes
  62. Forced                                   : No
  63. Text #2
  64. ID                                       : 4
  65. Format                                   : PGS
  66. Codec ID                                 : S_HDMV/PGS
  67. Codec ID/Info                            : Picture based subtitle format used on BDs/HD-DVDs
  68. Title                                    : Spanish
  69. Language                                 : Spanish
  70. Default                                  : No
  71. Forced                                   : No
复制代码









回复

使用道具 举报

蓝光币
239
发表于 2024-1-22 00:27:34 | 显示全部楼层
感谢蓝光电影网,感谢楼主分享
回复

使用道具 举报

蓝光币
730
发表于 2024-1-22 01:04:54 | 显示全部楼层
感谢楼主分享
回复

使用道具 举报

蓝光币
266
发表于 2024-1-22 08:02:40 | 显示全部楼层
感谢分享
回复

使用道具 举报

蓝光币
35
发表于 2024-1-22 13:30:16 | 显示全部楼层
好看不?恐怖不 ?
回复

使用道具 举报

蓝光币
134
发表于 2024-1-22 20:02:02 | 显示全部楼层

既然你诚信诚意的推荐了,那我就勉为其难的看看吧!蓝光电影网不走平凡路。
回复

使用道具 举报

蓝光币
110
发表于 2024-1-22 22:26:25 | 显示全部楼层
谢谢分享!!!!
回复

使用道具 举报

蓝光币
306
发表于 2024-1-22 23:29:12 | 显示全部楼层
楼主发贴辛苦了,谢谢楼主分享!我觉得蓝光电影网是注册对了!
回复

使用道具 举报

蓝光币
71
发表于 2024-1-23 10:48:22 | 显示全部楼层
楼主发贴辛苦了,谢谢楼主分享!我觉得蓝光电影网是注册对了!
回复

使用道具 举报

蓝光币
10
发表于 2024-1-23 10:58:52 | 显示全部楼层
感谢分享
回复

使用道具 举报

懒得打字嘛,点击右侧快捷回复 【右侧内容,后台自定义】
您需要登录后才可以回帖 登录 | 立即加入

本版积分规则

Copyright © 2024 Comsenz Inc. Powered by 蓝光电影网

本站内容由用户自主分享和转载自互联网,转载目的在于传递更多信息,并不代表本网赞同其观点和对其真实性负责。

如有侵权、违反国家法律政策行为,请联系我们,我们会第一时间及时清除和处理!

举报反馈邮箱:4k1080.com@gmail.com

快速回复 返回顶部 返回列表