找回密码

查看: 5736|回复: 81

[喜剧] 宿醉3.The.Hangover.Part.III.2013.1080p.BluRay.AVC.AC3.DD5.1.x264-PANAM 5.54GB

  [复制链接]
蓝光币
1839
发表于 2024-1-9 21:56:29 | 显示全部楼层 |阅读模式


◎译  名 宿醉3 / 醉爆伴郎团3(港) / 醉后大丈夫3(台)
◎片  名 The Hangover Part III
◎年  代 2013
◎产  地 美国
◎类  别 笑剧
◎语  言 英语
◎上映日期 2013-05-23(美国)
◎IMDb评星  ★★★★★★☆☆☆☆
◎IMDb评分  5.8/10 from 331,144 users
◎IMDb链接  https://www.imdb.com/title/tt1951261/
◎豆瓣评星 ★★★✦☆
◎豆瓣评分 6.6/10 from 66,245 users
◎豆瓣链接 https://movie.douban.com/subject/7051900/
◎片  长 100分钟
◎导  演 托德·菲利普斯 / Todd Phillips
◎演  员 布莱德利·库珀 / Bradley Cooper | 饰 Phil
      扎克·加利凡纳基斯 / Zach Galifianakis | 饰 Alan
      艾德·赫尔姆斯 / Ed Helms | 饰 Stu
      贾斯汀·巴萨 / Justin Bartha | 饰 Doug
      郑肯 / Ken Jeong | 饰 Mr. Chow
      梅丽莎·麦卡西 / Melissa McCarthy
      约翰·古德曼 / John Goodman
      西尔维亚·柯里尔 / Silvia Curiel | 饰 House Keeper
      迈克·艾普斯 / Mike Epps
      郑智麟 / Jamie Chung | 饰 Lauren
      迈克·泰森 / Mike Tyson
      海瑟·格拉汉姆 / Heather Graham | 饰 Jade
      克莱特·斯通 / Colette Stone
      哈里森·福塞斯 / Harrison Forsyth
      萨莎·巴瑞斯 / Sasha Barrese | 饰 Tracy
◎编  剧 克雷格·麦辛 / Craig Mazin
      托德·菲利普斯 / Todd Phillips
◎制  片  人 托德·菲利普斯 / Todd Phillips
      托马斯·图尔 / Thomas Tull
◎音  乐 克里斯托弗·贝克 / Christophe Beck
◎摄  影 乔什·布莱布特雷 / Josh Bleibtreu
      劳伦斯·谢尔 / Lawrence Sher
◎剪  辑 杰夫·格罗斯 / Jeff Groth
◎美  术 奥斯丁·格尔 / Austin Gorg
◎行动特技 芳贺昭宏 / Akihiro Haga
◎简  介 
  Alan(扎克·加利凡纳基斯 Zach Galifianakis 饰)已经42岁了,却还和爸爸老妈住在一块,有一天他的爸爸“终究”被他气死了。Alan的几个死党Phil(布莱德利·库珀 Bradley Cooper 饰)、Stu(艾德·赫尔姆斯 Ed Helms 饰)和Doug(贾斯汀·巴萨 Justin Bartha 饰)决议带着Alan去亚利桑那的一个地方给他心理治疗。四小我在路上意外被一个叫Marshall的人给劫持了。本来这一切都是Leslie Chow(郑肯 Ken Jeong 饰)惹的祸。Chow从曼谷的牢狱里逃出,而且劫走了Marshall的代价四千两百万的黄金中的一半。Marshall为了找出Chow,留下了Doug,让其他三人去把Chow带返来。Alan一向和Chow有联系,三人很快和Chow见了面,为了救回Doug,Chow决议带他们三人回本来自己的家中,取回那两千一百万黄金。眼看四人历经艰辛终究把黄金拿到了手,Chow却把他们三人锁在地下室,自己一小我带着黄金拂袖而去。他们能否能救回Doug,这四小我又将履历怎样一段冒险旅程?
◎获奖情况 
  第34届金酸莓奖 (2014)
  最差前传、重拍、恶搞及续集电影(提名)
  第17届好莱坞电影奖 (2013)
  年度电影(提名) 托德·菲利普斯
◎幕后揭秘
  《宿醉》系列终极章
  《宿醉》系列,不但仅把几位名不见经传的笑剧演员酿成了大明星,更是在这几年里,让R级笑剧成为了极有票房潜力的片种。在《宿醉》以后,这样的疯癫笑剧就成为了银幕上的某种支流元素,而跟风的影片却由于没有获得《宿醉》那末大的成功,更显得《宿醉》在这个时代里的难等宝贵。
  《宿醉2》拍完以后,《宿醉3》的拍摄日程就被提到了桌面来了。影片的导演兼编剧托德·菲利普斯说:“实在,拍不拍第三集并不是我说了算的工作,这是观众决议的。假如观众希望有第三集的出现,那末我们一定会把这部电影拍好。第三集和前面两集都纷歧样,我们需要一个更大的设定来让这个故事有个结尾,让这群经常在一路饮酒宿醉的损友们找到生活的意义。我们没有一个拍摄的榜样,由于这部电影在我的心里并不是一个续集,也不是一个毫无新意的滥竽凑数的作品。我们用新的角度和新的想法介入到了影片的故事当中,用别的一种笑剧的框架和结构,来拍摄了这部电影。”
  和前面两部电影分歧,《宿醉3》和饮酒、宿醉的关系并不大,反而是一部报告朋友之间关系的笑剧。菲利普斯说:“这部电影是艾伦的电影,一切的故事都是因他而起,然后大部分故事也都是由于他才出现的。这部电影里,几近没有饮酒,更没有牛饮和宿醉。艾伦,在这部电影中遭碰到了小我的危机,他的父亲归天了,他又被卷入了使人生畏的绑架、黑帮的斗争当中。所以说,这部电影就是艾伦的电影,也并不算夸张。”
  在《宿醉3》拍摄完以后,《宿醉》系列将被划上一个句号。对于这计划中的最初一部电影,菲利普斯说:“简直,这是我们计划中的最初一部电影了,我很高兴,能和这群人在一路合作,对于这行将竣事的一段工作,我感应既欣喜、又严重,固然,还有些许的难过和不舍。这些都不是题目,关键是,拍摄这部电影,然我很过瘾。”
  原班人马再次回归

  《宿醉》是有纪念意义的,除了这套影片的高票房使人咋舌之外,影片的主演们也都在这部电影以后迎来了自己奇迹的转折点。菲利普斯说:“《宿醉》系列是有纪念意义的电影,对于我来说是这样,对于演员们来说也是这样。在《宿醉》获得成功以后,这些演员都迎来了奇迹的转折,让人们见识到了他们的才华,这使人很是欣喜。他们在这部电影中的表演,一样使人怀念,由于就似乎是在《宿醉》中一样,他们的表演仍然是新鲜的。”

  谈及这部点和自己在其中的表演,饰演艾伦的扎克·加利费安纳基斯说:“我不感觉这是一部艾伦的电影,我感觉艾伦只是这其中重要的演员之一。他首先是一个不幸的人,一个倒霉蛋,其次还是一个不自知的人,一个希望填补毛病但却会犯下更多毛病的人。我感觉这其中有大量的笑点,有很多使人张口结舌的剧情设想。这是很好玩的。我的脚色没有换过,还是本来的感受和设定。表演也就和畴前一样。之前怎样表演,现在还是怎样表演。对这部电影,我最喜好的一点就是它没有照搬之前《宿醉》的公式,而是别的写了一个剧本。要晓得,这对于一部三部曲的竣事之作来说,是很是冒险的工作。”

  韩裔演员肯·郑,在这部电影中虽然戏份不多,但却是一个关键性的脚色,而且他在这部电影中有很多行动戏。他说:“这部电影和之前的《宿醉》很纷歧样,故事结构、叙事的方式和概念都不不异,并没有依照本来的形式拍。所以,我们的表演也要停止批改和改变。我的在其中还是饰演了一个黑帮,只不外,此次有更多的笑料集合在我的脚色上,我的戏份更重了。而且,我还有些行动戏要表演,这有些难度,由于这部电影中的行动戏并不是我们一般意义上以为的行动戏,而是那种要搞出笑料来的行动戏。有行动不够,还要有笑点。这就很难了。不外,在Gill的帮助和指导下,这些镜头拍摄得很是顺遂。”
  1. General
  2. Unique ID                                : 38625943613642696484023498003667953027 (0x1D0F160D8153AC4A9A5F985E179F2583)
  3. Complete name                            : D:\The.Hangover.Part.III.2013.1080p.BluRay.AVC.AC3.DD5.1.x264-PANAM.mkv
  4. Format                                   : Matroska
  5. Format version                           : Version 4
  6. File size                                : 5.54 GiB
  7. Duration                                 : 1 h 40 min
  8. Overall bit rate mode                    : Variable
  9. Overall bit rate                         : 7 913 kb/s
  10. Frame rate                               : 23.976 FPS
  11. Encoded date                             : 2023-12-29 12:28:15 UTC
  12. Writing application                      : TMPGEnc
  13. Writing library                          : TMPGEnc
  14. Video
  15. ID                                       : 1
  16. Format                                   : AVC
  17. Format/Info                              : Advanced Video Codec
  18. Format profile                           : High@L4
  19. Format settings                          : CABAC / 5 Ref Frames
  20. Format settings, CABAC                   : Yes
  21. Format settings, Reference frames        : 5 frames
  22. Codec ID                                 : V_MPEG4/ISO/AVC
  23. Duration                                 : 1 h 40 min
  24. Bit rate mode                            : Variable
  25. Bit rate                                 : 7 400 kb/s
  26. Maximum bit rate                         : 29.6 Mb/s
  27. Width                                    : 1 920 pixels
  28. Height                                   : 804 pixels
  29. Display aspect ratio                     : 2.39:1
  30. Frame rate mode                          : Constant
  31. Frame rate                               : 23.976 (24000/1001) FPS
  32. Standard                                 : Component
  33. Color space                              : YUV
  34. Chroma subsampling                       : 4:2:0
  35. Bit depth                                : 8 bits
  36. Scan type                                : Progressive
  37. Bits/(Pixel*Frame)                       : 0.200
  38. Stream size                              : 4.98 GiB (90%)
  39. Writing library                          : x264 core 155
  40. Encoding settings                        : cabac=1 / ref=5 / deblock=1:0:0 / analyse=0x3:0x113 / me=hex / subme=7 / psy=1 / psy_rd=1.00:0.00 / mixed_ref=1 / me_range=16 / chroma_me=1 / trellis=1 / 8x8dct=1 / cqm=1 / deadzone=21,11 / fast_pskip=1 / chroma_qp_offset=-2 / threads=25 / lookahead_threads=4 / sliced_threads=0 / slices=1 / nr=0 / decimate=1 / interlaced=0 / minigop=0 / stitchable=1 / constrained_intra=0 / bframes=3 / b_pyramid=0 / b_adapt=1 / b_bias=0 / direct=1 / weightb=1 / open_gop=1 / weightp=2 / keyint=250 / keyint_min=23 / scenecut=40 / intra_refresh=0 / rc_lookahead=40 / rc=abr / mbtree=1 / bitrate=7400 / ratetol=1.0 / qcomp=0.60 / qpmin=3 / qpmax=69 / qpstep=4 / vbv_maxrate=29600 / vbv_bufsize=29600 / nal_hrd=vbr / filler=0 / ip_ratio=1.40 / aq=1:1.00
  41. Default                                  : Yes
  42. Forced                                   : No
  43. Color range                              : Limited
  44. Color primaries                          : BT.709
  45. Transfer characteristics                 : BT.709
  46. Matrix coefficients                      : BT.709
  47. Audio
  48. ID                                       : 2
  49. Format                                   : AC-3
  50. Format/Info                              : Audio Coding 3
  51. Commercial name                          : Dolby Digital
  52. Codec ID                                 : A_AC3
  53. Duration                                 : 1 h 40 min
  54. Bit rate mode                            : Constant
  55. Bit rate                                 : 640 kb/s
  56. Channel(s)                               : 6 channels
  57. Channel layout                           : L R C LFE Ls Rs
  58. Sampling rate                            : 48.0 kHz
  59. Frame rate                               : 31.250 FPS (1536 SPF)
  60. Compression mode                         : Lossy
  61. Stream size                              : 458 MiB (8%)
  62. Service kind                             : Complete Main
  63. Default                                  : Yes
  64. Forced                                   : No
复制代码









回复

使用道具 举报

蓝光币
565
发表于 2024-1-10 00:55:45 | 显示全部楼层
看过了,喜剧意味很有特点,多谢分享啦
回复 支持 反对

使用道具 举报

蓝光币
109
发表于 2024-1-10 09:11:20 | 显示全部楼层
楼主发贴辛苦了,谢谢楼主分享!我觉得蓝光电影网是注册对了!
回复 支持 反对

使用道具 举报

蓝光币
980
发表于 2024-1-10 21:39:51 | 显示全部楼层

既然你诚信诚意的推荐了,那我就勉为其难的看看吧!蓝光电影网不走平凡路。
回复 支持 反对

使用道具 举报

蓝光币
239
发表于 2024-1-10 21:55:06 | 显示全部楼层
感谢蓝光电影网,感谢楼主分享
回复 支持 反对

使用道具 举报

蓝光币
116
发表于 2024-1-11 00:34:43 | 显示全部楼层
谢谢楼主分享
回复 支持 反对

使用道具 举报

蓝光币
30
发表于 2024-1-11 01:26:57 | 显示全部楼层
楼主发贴辛苦了,谢谢楼主分享!
回复 支持 反对

使用道具 举报

蓝光币
1256
发表于 2024-1-11 09:48:21 | 显示全部楼层

这个帖子不回对不起自己!我想我是一天也不能离开蓝光电影网。
回复 支持 反对

使用道具 举报

蓝光币
304
发表于 2024-1-11 18:02:53 | 显示全部楼层

这东西我收了!谢谢楼主!蓝光电影网真好!
回复 支持 反对

使用道具 举报

蓝光币
325
发表于 2024-1-11 18:05:02 | 显示全部楼层

这东西我收了!谢谢楼主!蓝光电影网真好!
回复 支持 反对

使用道具 举报

懒得打字嘛,点击右侧快捷回复 【右侧内容,后台自定义】
您需要登录后才可以回帖 登录 | 立即加入

本版积分规则

Copyright © 2024 Comsenz Inc. Powered by 蓝光电影网

本站内容由用户自主分享和转载自互联网,转载目的在于传递更多信息,并不代表本网赞同其观点和对其真实性负责。

如有侵权、违反国家法律政策行为,请联系我们,我们会第一时间及时清除和处理!

举报反馈邮箱:4k1080.com@gmail.com

快速回复 返回顶部 返回列表