找回密码

查看: 1874|回复: 36

[科幻] 眼球战机.Eyeborgs.2009.1080p.BluRay.AVC.AC3.DD5.1.x264-PANAM 5.76GB

[复制链接]
蓝光币
1840
发表于 2024-1-9 21:56:29 | 显示全部楼层 |阅读模式


◎译  名 眼球战机 / 机械的哗变
◎片  名 Eyeborgs
◎年  代 2009
◎产  地 美国
◎类  别 科幻
◎语  言 英语
◎上映日期 2009
◎IMDb评星  ★★★★★☆☆☆☆☆
◎IMDb评分  4.9/10 from 2,294 users
◎IMDb链接  https://www.imdb.com/title/tt1043844/
◎豆瓣评星 ★★★☆☆
◎豆瓣评分 6.0/10 from 1,258 users
◎豆瓣链接 https://movie.douban.com/subject/2332473/
◎片  长 103分钟
◎导  演 Richard Clabaugh Richard Clabaugh
      盖-罗杰·杜维尔 / Guy-Roger Duvert
◎演  员  Brandon Adams
      Lovinder Gill Lovinder Gill
      卢卡斯·艾略特·艾博尔 / Lucas Elliot Eberl
      Dale Girard Dale Girard
      丹尼·特雷霍 / Danny Trejo
      David Schifter David Schifter
      Mark Joy Mark Joy
      阿德里安·保罗 / Adrian Paul
      梅根·布莱克 / Megan Blake | 饰 Barbara Hawkins
◎编  剧 Richard Clabaugh Richard Clabaugh
◎制  片  人 Richard Clabaugh Richard Clabaugh
◎音  乐 阿鲲 / Roc Chen
       Mark Brisbane
◎选  角 凯特琳·麦克格雷戈 / Catrine McGregor
◎副  导  演  Clint Buckner
      Dale Girard Dale Girard
◎视觉殊效 Christopher Howell Watson Christopher Howell Watson
◎简  介 
  这是一种政府制造的监视摄像机械,用于反恐,但它究竟是庇护群众,还是加害了我们?   现今社会,可骇攻击日益增加。小我隐私已成为曩昔。现在不管是在家里、街上大概工作场所,人们的一举一动都遭到电子摄像头的监控。可是这些摄像头真的只是在监控吗?随着死于横死人数的爬升,联邦观察局发现了一个使人震动的工作……他们的观察工作酿成了一场人与机械之间的战争……
  1. General
  2. Unique ID                                : 112517130675483234272053800392425372698 (0x54A602D8EBA748439ABC210052CA7C1A)
  3. Complete name                            : D:\Eyeborgs.2009.1080p.BluRay.AVC.AC3.DD5.1.x264-PANAM.mkv
  4. Format                                   : Matroska
  5. Format version                           : Version 4
  6. File size                                : 5.76 GiB
  7. Duration                                 : 1 h 42 min
  8. Overall bit rate mode                    : Variable
  9. Overall bit rate                         : 8 030 kb/s
  10. Frame rate                               : 23.976 FPS
  11. Encoded date                             : 2023-12-29 18:17:36 UTC
  12. Writing application                      : TMPGEnc
  13. Writing library                          : TMPGEnc
  14. Video
  15. ID                                       : 1
  16. Format                                   : AVC
  17. Format/Info                              : Advanced Video Codec
  18. Format profile                           : High@L4.1
  19. Format settings                          : CABAC / 5 Ref Frames
  20. Format settings, CABAC                   : Yes
  21. Format settings, Reference frames        : 5 frames
  22. Codec ID                                 : V_MPEG4/ISO/AVC
  23. Duration                                 : 1 h 42 min
  24. Bit rate mode                            : Variable
  25. Bit rate                                 : 7 550 kb/s
  26. Maximum bit rate                         : 30.2 Mb/s
  27. Width                                    : 1 920 pixels
  28. Height                                   : 824 pixels
  29. Display aspect ratio                     : 2.35:1
  30. Frame rate mode                          : Constant
  31. Frame rate                               : 23.976 (24000/1001) FPS
  32. Standard                                 : Component
  33. Color space                              : YUV
  34. Chroma subsampling                       : 4:2:0
  35. Bit depth                                : 8 bits
  36. Scan type                                : Progressive
  37. Bits/(Pixel*Frame)                       : 0.199
  38. Stream size                              : 5.19 GiB (90%)
  39. Writing library                          : x264 core 155
  40. Encoding settings                        : cabac=1 / ref=5 / deblock=1:0:0 / analyse=0x3:0x113 / me=umh / subme=8 / psy=1 / psy_rd=1.00:0.00 / mixed_ref=1 / me_range=16 / chroma_me=1 / trellis=1 / 8x8dct=1 / cqm=1 / deadzone=21,11 / fast_pskip=1 / chroma_qp_offset=-2 / threads=26 / lookahead_threads=4 / sliced_threads=0 / slices=1 / nr=0 / decimate=1 / interlaced=0 / minigop=0 / stitchable=1 / constrained_intra=0 / bframes=3 / b_pyramid=0 / b_adapt=2 / b_bias=0 / direct=3 / weightb=1 / open_gop=1 / weightp=2 / keyint=250 / keyint_min=23 / scenecut=40 / intra_refresh=0 / rc_lookahead=50 / rc=abr / mbtree=1 / bitrate=7550 / ratetol=1.0 / qcomp=0.60 / qpmin=3 / qpmax=69 / qpstep=4 / vbv_maxrate=30200 / vbv_bufsize=30200 / nal_hrd=vbr / filler=0 / ip_ratio=1.40 / aq=1:1.00
  41. Default                                  : Yes
  42. Forced                                   : No
  43. Color range                              : Limited
  44. Color primaries                          : BT.709
  45. Transfer characteristics                 : BT.709
  46. Matrix coefficients                      : BT.709
  47. Audio
  48. ID                                       : 2
  49. Format                                   : AC-3
  50. Format/Info                              : Audio Coding 3
  51. Commercial name                          : Dolby Digital
  52. Codec ID                                 : A_AC3
  53. Duration                                 : 1 h 42 min
  54. Bit rate mode                            : Constant
  55. Bit rate                                 : 640 kb/s
  56. Channel(s)                               : 6 channels
  57. Channel layout                           : L R C LFE Ls Rs
  58. Sampling rate                            : 48.0 kHz
  59. Frame rate                               : 31.250 FPS (1536 SPF)
  60. Compression mode                         : Lossy
  61. Stream size                              : 470 MiB (8%)
  62. Service kind                             : Complete Main
  63. Default                                  : Yes
  64. Forced                                   : No
复制代码









回复

使用道具 举报

蓝光币
123
发表于 2024-1-10 00:27:43 | 显示全部楼层
楼主发贴辛苦了,谢谢楼主分享!我觉得蓝光电影网是注册对了!
回复

使用道具 举报

蓝光币
422
发表于 2024-1-10 09:43:05 | 显示全部楼层
谢谢分享
回复

使用道具 举报

蓝光币
102
发表于 2024-1-10 19:24:33 | 显示全部楼层
谢谢分享!!!!!
回复

使用道具 举报

蓝光币
256
发表于 2024-1-11 08:06:15 | 显示全部楼层
感谢分享
回复

使用道具 举报

蓝光币
214
发表于 2024-1-11 10:25:56 | 显示全部楼层
楼主发贴辛苦了,谢谢楼主分享!我觉得蓝光电影网是注册对了!
回复

使用道具 举报

蓝光币
101
发表于 2024-1-12 08:52:01 | 显示全部楼层

楼主太厉害了!楼主,电影应该很好看我觉得蓝光电影网真是个好地方!
回复

使用道具 举报

蓝光币
27
发表于 2024-1-12 08:53:03 | 显示全部楼层
楼主太厉害了!
回复

使用道具 举报

蓝光币
171
发表于 2024-1-12 16:51:51 | 显示全部楼层
谢谢分享谢谢分享
回复

使用道具 举报

蓝光币
328
发表于 2024-1-13 01:04:03 | 显示全部楼层

我看不错噢 谢谢楼主!蓝光电影网越来越好!
回复

使用道具 举报

懒得打字嘛,点击右侧快捷回复 【右侧内容,后台自定义】
您需要登录后才可以回帖 登录 | 立即加入

本版积分规则

Copyright © 2024 Comsenz Inc. Powered by 蓝光电影网

本站内容由用户自主分享和转载自互联网,转载目的在于传递更多信息,并不代表本网赞同其观点和对其真实性负责。

如有侵权、违反国家法律政策行为,请联系我们,我们会第一时间及时清除和处理!

举报反馈邮箱:4k1080.com@gmail.com

快速回复 返回顶部 返回列表