找回密码

查看: 1889|回复: 38

[科幻] 星际传奇3.Riddick.2013.1080p.BluRay.AVC.AC3.DD5.1.x264-PANAM 6.58GB

[复制链接]
蓝光币
1858
发表于 2024-1-5 16:24:27 | 显示全部楼层 |阅读模式


◎译  名 星际传奇3 / 星兽浩劫(港) / 超世纪战警:暗黑对决(台) / Riddick: Rule the Dark / RIddck / The Chronicles of Riddick: Dead Man Stalking
◎片  名 Riddick
◎年  代 2013
◎产  地 美国 / 英国
◎类  别 行动 / 科幻 / 惊悚
◎语  言 英语
◎上映日期 2013-09-06(美国)
◎IMDb评星  ★★★★★★✦☆☆☆
◎IMDb评分  6.4/10 from 176,130 users
◎IMDb链接  https://www.imdb.com/title/tt1411250/
◎豆瓣评星 ★★★✦☆
◎豆瓣评分 6.5/10 from 27,900 users
◎豆瓣链接 https://movie.douban.com/subject/3652297/
◎片  长 119分钟 / 127分钟(导演剪辑版)
◎导  演 大卫·杜西 / David Twohy
◎演  员 范·迪塞尔 / Vin Diesel
      詹迪·莫拉 / Jordi Mollà
      马特·纳夫莱 / Matt Nable
      凯缇·萨克霍夫 / Katee Sackhoff
      戴夫·巴蒂斯塔 / Dave Bautista
      博基姆·伍德拜因 / Bokeem Woodbine
      劳尔·特鲁希洛 / Raoul Trujillo
      诺兰·杰拉德·冯克 / Nolan Gerard Funk
      卡尔·厄本 / Karl Urban
      凯莉·希尔森 / Keri Hilson
      安托瓦内特·尼普莱拉 / Antoinette Nikprelaj
      诺亚·丹比 / Noah Danby
◎编  剧 大卫·杜西 / David Twohy
      Oliver Butcher Oliver Butcher
      Stephen Cornwell Stephen Cornwell
      肯·维特 / Ken Wheat
      吉姆·维特 / Jim Wheat
◎简  介 
  力大无穷的瑞迪克(范·迪塞尔 Vin Diesel 饰)终究坐上构造的宝座,强兵悍将拜倒阶下,与此同时又有更多野心家捋臂张拳,时辰预备取代他的位置。直到某天,瑞迪克被心腹利用分开舰队,出发返回阔别已久的故乡,谁知竟被带到一颗布满凶恶的蛮荒星球,进而更遭到随从的变节和追杀 。侥幸逃得一命的瑞迪克满身伤痕,而这颗行星上处处都是凶悍的野兽和可怕的异形。为了求生,他只要将自己化身为杀气实足的杀神,以驯服这群不时辰刻想要吃掉他的异界生物。固然,更大的应战和危险远远不止这些,迪瑞克仍然在世的消息传遍全宇宙,由此引来一波又一波的赏金猎人试图割下他的脑壳。
  生死之战,在陌生的星球展开……
◎幕后揭秘
  几乎流产的续集
  在自力的小众的科幻电影界里,一向有一套科幻片很是使人关注,这就是范·迪塞尔主演的《星际传奇》。虽然说影片的情节无外乎就是外星的猎食人类的异形怪物、赏金猎人和清闲法外的凶手,可是这套电影由于怪异的人生观和具有西部片特点的主题,而遭到了一部分影迷的接待。只不外,2004年的《星际传奇2》没有获得料想当中的票房,而使得这部《星际传奇3》几乎流产。
  在《星际传奇2》票房失利以后,主演,也是影片监制的范·迪塞尔和导演大卫·杜西便想把《星际传奇3》打形成一部自力的低本钱影片,而且自己寻觅上映的能够性,不想依托于大制片厂的刊行。2006年,《星际传奇3》的传闻起头传播于电影圈。影片的导演大卫·杜西说:“简直是这样,这部电影间隔上一部足足有9年时候了。我和迪塞尔大如果5年之前起头严厉认真地会商若何拍摄这部续集的。上一部电影,是一部有大制片公司介入建造的电影,有很大的投资,可是结果却并不是那末好。那部电影满足了一部分粉丝的需要,可是却没能满足一切的粉丝。所以,我们决议,一定要在这部电影里,重新展现出《星际传奇》中的那种小众、恐惧的特点来,而不是用殊效哗众取宠。”
  实在,要在一部并不成功的电影的“尸身”上重新站起来,并不是一件轻易的工作。大卫·杜西说:“很多工作超越了我们的预感和判定。首先剧本题目就一向对峙不下。迪塞尔给了我很多的定见和支持,究竟,瑞迪克这个脚色是属于他的,他希望这个脚色能更有条理和深度。而且,我们也斟酌到了影片的气质题目,我们希望它更像是《星际传奇》而不是《星际传奇2》。固然,最大的,还是影片的本钱题目。我们一路头想着要用自力的方式拍摄这部电影。一路头,我预备用3000-4000万美圆拍摄这部电影。后来,我们很顺遂地依照自己的想法拍摄了它。影片终极的本钱大如果3800万美圆。由于没有了大制片厂的介入,这部电影的自在度更高,也加倍能满足粉丝们的需求。”
  灵魂人物范·迪塞尔
  瑞迪克这个脚色是属于迪塞尔的,能够也只能属于迪塞尔一小我。为了这个脚色,迪塞尔做了很多的预备工作,除了把自己的心态从《速度与豪情》中抽离出来之外,他还停止了一定的体能锻炼。迪塞尔说:“几近一切人都晓得,我很是喜好瑞迪克这个脚色,而且我也为他做了大量的预备工作,不管是身材还是心态上的。甚至连剧本和人物性情,我都介入了创作。应当说,这是我最为垂青的一个脚色。我们之所以能从2006年起头,足足用了7年时候在这部电影上,就是由于我和大卫·杜西很是器重这部电影,这是我们的财富。”
  对于影片和迪塞尔的表演,大卫·杜西赞不停口。他说:“对于那些影片的忠厚粉丝来说,这部电影是让他们如愿以偿了。由于没有大制片公司的影响,这部电影是一部纯洁的、回归气概的科幻作品。迪塞尔的表演和扮相还是自始自终。在这部电影中,抵触和暴力会被放得更大,行动排场和外星的怪物也会更多、更有杀伤力;影片的气概也会加倍黑暗。迪塞尔是一个值得拜托和使人安心的演员。他对于工作可谓是尽责尽责,敷衍了事。由于我们晓得,9年时候,期待、建造一部电影是什么滋味,所以我们不会对它漫不经心的。”
  既然是一部科幻片,那末殊效镜头就是少不了的。除了建造迪塞尔在片中的那一双会发光的眼睛之外,这部电影中还有接近900个殊效镜头。大卫·杜西说:“影片中的殊效镜头很多,大要有850-900个。在前期的时辰,我们一遍一遍看着样片,然后斟酌哪些镜头要做成殊效镜头再插到电影里面去,这是一个很烦人的工作,由于每个细节都要照顾到才行。在这部电影里,我利用的ARRI Alexa算是今朝最早辈的数码电影摄影机系统了。这个机械的传感器能供给14个曝光度的宽漂亮。而昔时,柯达的胶片也不外只能供给12个而已。我感觉,数码已经是大势所趋了,而且加上前期的便当水和蔼拍摄时辰的自在度,再斟酌到本钱题目,我没有来由挑选胶片。而且,数码间接拍摄,前期调色也很是轻易。要晓得,《星际传奇3》是一部很仰仗于前期的电源,我们几近每一个镜头都经过了调色和修整。”
  1. General
  2. Unique ID                                : 135233716857120577866463631940871941993 (0x65BD1104BDAFB44381FD617F5D1A6F69)
  3. Complete name                            : D:\Riddick.2013.1080p.BluRay.AVC.AC3.DD5.1.x264-PANAM.mkv
  4. Format                                   : Matroska
  5. Format version                           : Version 4
  6. File size                                : 6.58 GiB
  7. Duration                                 : 1 h 58 min
  8. Overall bit rate mode                    : Variable
  9. Overall bit rate                         : 7 933 kb/s
  10. Frame rate                               : 23.976 FPS
  11. Encoded date                             : 2023-12-30 02:59:33 UTC
  12. Writing application                      : TMPGEnc
  13. Writing library                          : TMPGEnc
  14. Video
  15. ID                                       : 1
  16. Format                                   : AVC
  17. Format/Info                              : Advanced Video Codec
  18. Format profile                           : High@L4
  19. Format settings                          : CABAC / 5 Ref Frames
  20. Format settings, CABAC                   : Yes
  21. Format settings, Reference frames        : 5 frames
  22. Codec ID                                 : V_MPEG4/ISO/AVC
  23. Duration                                 : 1 h 58 min
  24. Bit rate mode                            : Variable
  25. Bit rate                                 : 7 400 kb/s
  26. Maximum bit rate                         : 29.6 Mb/s
  27. Width                                    : 1 920 pixels
  28. Height                                   : 808 pixels
  29. Display aspect ratio                     : 2.39:1
  30. Frame rate mode                          : Constant
  31. Frame rate                               : 23.976 (24000/1001) FPS
  32. Standard                                 : Component
  33. Color space                              : YUV
  34. Chroma subsampling                       : 4:2:0
  35. Bit depth                                : 8 bits
  36. Scan type                                : Progressive
  37. Bits/(Pixel*Frame)                       : 0.199
  38. Stream size                              : 5.91 GiB (90%)
  39. Writing library                          : x264 core 155
  40. Encoding settings                        : cabac=1 / ref=5 / deblock=1:0:0 / analyse=0x3:0x113 / me=umh / subme=8 / psy=1 / psy_rd=1.00:0.00 / mixed_ref=1 / me_range=16 / chroma_me=1 / trellis=1 / 8x8dct=1 / cqm=1 / deadzone=21,11 / fast_pskip=1 / chroma_qp_offset=-2 / threads=25 / lookahead_threads=4 / sliced_threads=0 / slices=1 / nr=0 / decimate=1 / interlaced=0 / minigop=0 / stitchable=1 / constrained_intra=0 / bframes=3 / b_pyramid=0 / b_adapt=2 / b_bias=0 / direct=3 / weightb=1 / open_gop=1 / weightp=2 / keyint=250 / keyint_min=23 / scenecut=40 / intra_refresh=0 / rc_lookahead=50 / rc=abr / mbtree=1 / bitrate=7400 / ratetol=1.0 / qcomp=0.60 / qpmin=3 / qpmax=69 / qpstep=4 / vbv_maxrate=29600 / vbv_bufsize=29600 / nal_hrd=vbr / filler=0 / ip_ratio=1.40 / aq=1:1.00
  41. Default                                  : Yes
  42. Forced                                   : No
  43. Color range                              : Limited
  44. Color primaries                          : BT.709
  45. Transfer characteristics                 : BT.709
  46. Matrix coefficients                      : BT.709
  47. Audio
  48. ID                                       : 2
  49. Format                                   : AC-3
  50. Format/Info                              : Audio Coding 3
  51. Commercial name                          : Dolby Digital
  52. Codec ID                                 : A_AC3
  53. Duration                                 : 1 h 58 min
  54. Bit rate mode                            : Constant
  55. Bit rate                                 : 640 kb/s
  56. Channel(s)                               : 6 channels
  57. Channel layout                           : L R C LFE Ls Rs
  58. Sampling rate                            : 48.0 kHz
  59. Frame rate                               : 31.250 FPS (1536 SPF)
  60. Compression mode                         : Lossy
  61. Stream size                              : 543 MiB (8%)
  62. Service kind                             : Complete Main
  63. Default                                  : Yes
  64. Forced                                   : No
复制代码









回复

使用道具 举报

蓝光币
99
发表于 2024-1-5 22:11:10 | 显示全部楼层
楼主辛苦了,感谢分享。
回复

使用道具 举报

蓝光币
128
发表于 2024-1-6 00:56:10 | 显示全部楼层
楼主发贴辛苦了,谢谢楼主分享!我觉得蓝光电影网是注册对了!
回复

使用道具 举报

蓝光币
685
发表于 2024-1-6 10:47:26 | 显示全部楼层
楼主发贴辛苦了,谢谢楼主分享!我觉得蓝光电影网是注册对了!
回复

使用道具 举报

蓝光币
992
发表于 2024-1-6 13:04:04 | 显示全部楼层
楼主发贴辛苦了,谢谢楼主分享!我觉得蓝光电影网是注册对了!
回复

使用道具 举报

蓝光币
30
发表于 2024-1-6 14:49:26 | 显示全部楼层
楼主辛苦了,感谢分享。
回复

使用道具 举报

蓝光币
306
发表于 2024-1-6 16:31:25 | 显示全部楼层

楼主太厉害了!楼主,电影应该很好看我觉得蓝光电影网真是个好地方!
回复

使用道具 举报

蓝光币
437
发表于 2024-1-7 10:09:39 | 显示全部楼层
谢谢分享
回复

使用道具 举报

蓝光币
331
发表于 2024-1-7 21:14:14 | 显示全部楼层

楼主太厉害了!楼主,电影应该很好看我觉得蓝光电影网真是个好地方!
回复

使用道具 举报

蓝光币
769
发表于 2024-1-8 00:01:04 | 显示全部楼层
楼主发贴辛苦了,谢谢楼主分享!我觉得蓝光电影网是注册对了!
回复

使用道具 举报

懒得打字嘛,点击右侧快捷回复 【右侧内容,后台自定义】
您需要登录后才可以回帖 登录 | 立即加入

本版积分规则

Copyright © 2024 Comsenz Inc. Powered by 蓝光电影网

本站内容由用户自主分享和转载自互联网,转载目的在于传递更多信息,并不代表本网赞同其观点和对其真实性负责。

如有侵权、违反国家法律政策行为,请联系我们,我们会第一时间及时清除和处理!

举报反馈邮箱:4k1080.com@gmail.com

快速回复 返回顶部 返回列表