找回密码

查看: 1310|回复: 27

[恐怖] 堕入地狱.Drag.Me.To.Hell.2009.1080p.UNRATED.BluRay.AVC.AC3.DD5.1.x264-PANAM 5.43GB

[复制链接]
蓝光币
1840
发表于 2024-1-5 16:24:19 | 显示全部楼层 |阅读模式


◎译  名 堕入天堂 / 天堂魔咒(台) / 天堂巫门等你来(港) / 拽我下天堂 / 坠入天堂
◎片  名 Drag Me to Hell
◎年  代 2009
◎产  地 美国
◎类  别 可骇 / 奇异
◎语  言 英语 / 西班牙语
◎上映日期 2009-05-29
◎IMDb评星  ★★★★★★✦☆☆☆
◎IMDb评分  6.6/10 from 215,461 users
◎IMDb链接  https://www.imdb.com/title/tt1127180/
◎豆瓣评星 ★★★✦☆
◎豆瓣评分 6.5/10 from 35,955 users
◎豆瓣链接 https://movie.douban.com/subject/2361386/
◎片  长 99 分钟
◎导  演 山姆·雷米 / Sam Raimi
◎演  员 艾莉森·洛曼 / Alison Lohman
      贾斯汀·朗 / Justin Long
      罗娜·雷弗 / Lorna Raver
      迪利普·劳 / Dileep Rao
      大卫·佩默 / David Paymer
      布里奇异·霍夫曼 / Bridget Hoffman | 饰 Ghost at Seance
      奥克塔维亚·斯宾瑟 / Octavia Spencer | 饰 Bank Co-Worker
      费尔南达·罗梅罗 / Fernanda Romero
      雷吉·李 / Reggie Lee
      乔安娜·巴隆 / Joanne Baron
◎编  剧 山姆·雷米 / Sam Raimi
      伊万·莱米 / Ivan Raimi
◎制  片  人 内森·卡亨 / Nathan Kahane
      约瑟夫·德雷克 / Joseph Drake
      Cristen Carr Strubbe Cristen Carr Strubbe
◎音  乐 克里斯托弗·杨 / Christopher Young
◎选  角 约翰·帕帕席德拉 / John Papsidera
◎化  妆 John Wheaton John Wheaton
      卡罗尔·A·奥康奈尔 / Carol A. O'Connell
      卡米尔·卡尔维 / Camille Calvet
      Michael F. Blake Michael F. Blake
      霍华德·伯杰 / Howard Berger
      Janice Alexander Janice Alexander
◎视觉殊效 汤姆·吉本斯 / Tom Gibbons
      杰佩·N·克里斯腾森 / Jeppe N. Christensen
      洛尔恩·彼得森 / Lorne Peterson
      Matt Jacobs Matt Jacobs
      托马斯·罗塞特 / Thomas Rosseter
      Susan Alegria Susan Alegria
      迈克尔·布鲁奈特 / Michael Brunet
      Thomas Schelesny Thomas Schelesny
◎简  介 
  供职于某银行信贷机构的美丽女孩克莉丝蒂安(艾莉森•洛曼 Alison Lohman 饰)经过量年的尽力,奇迹终究有所起色;她和男友克雷(Justin Long 饰)的爱情虽遭对方母亲的否决,却也是心心相印,顺风逆水。可是,一场无妄之灾将她的人生推向谷底。
  住在布雷顿大街的吉普赛老太婆希尔维娅•加纳什(Lorna Raver 饰)因医疗胶葛面临房产被发出的窘境,克莉丝蒂安怜悯她的遭受,无法规定所限力所不及。愤慨至极的加纳什迁怒于无辜的克莉丝蒂安,两人在车库中发生剧烈奋斗,加纳什更向对方落下无情诅咒。在接下来的日子里,克莉丝蒂安遭受诸多可骇和古怪的事务。她决议造访加纳什处理这一切,却发现老太婆已经归天。而魔鬼黑山羊的诅咒仍在继续……
◎获奖情况 
  第19届MTV电影奖 (2010)
  MTV电影奖 最好惊骇戏表演(提名) 艾莉森·洛曼
  第11届美国青少年挑选奖 (2009)
  最好可骇/惊悚电影(提名)
◎台词金句
  Christine:Mr. Jakes, Assistant Manager candidates decision? Jakes:Soon decided that in between you and the election of a Stewart. Christine:Stewart? That new guy? Jakes:Stewart was hard to make a choice under the heart. Christine:This for me is not a problem. Jakes:I decided to tell you, will you? 克里斯汀:“杰克斯师长,助理司理的人选决议了吗?”杰克斯:“就快决议了,在你和斯图之间选一个。”克里斯汀:“斯图?新来的阿谁?”杰克斯:“斯图狠得下心来做出挑选。”克里斯汀:“这对我来说也不是一个题目。”杰克斯:“我决议下来就告诉你,好吗?”
  Ganush:I would like to ask that can help me? Christine:sure.Christine:One old lady outside the application deferred repayment mortgage, or we have had her evicted from their homes. jacks:We have deferred to her twice, which is difficult to allow the banks ah. You decide. Christine:You will not be postponed. Ganush:I can live where ah? Christine:I can only say that I am sorry. Ganush:I am not in this life for anyone, but now, I kneel in front of you, beg you ... ... Christine:Please do not do, do not do, security! Ganush:you for giving me a face! 纳米亚:“叨教,能帮帮我吗?”克里斯汀:“好的。”克里斯汀:“里面有位妻子婆申请房贷还款延期,否则我们就得把她赶落发门了。”杰克斯:“我们已经给过她两次延期了,这让银行很为难啊。你来决议吧。”克里斯汀:“不成能给你再延期了。”纳米亚:“那我能住那里啊?”克里斯汀:“我只能说,很抱歉。”纳米亚:“我这辈子没求过任何人,可是现在,我跪在你眼前,求求你……”克里斯汀:“请别这样,请别这样,保安!”纳米亚:“你让我丢尽了脸!”
  Ganush:Immediately turn to you for me ... ... conjurator:You are under a curse. Is a witch called Ganush. The first three days will be to identify the victims of the devil, then they will be taken away by you. Christine:Efforts I go? conjurator:You go to hell arrested, subjected to endless torture flames.纳米亚:“顿时就要轮到你求我了……”灵媒:“你被下了诅咒。是一个叫纳米亚的巫婆。头三天魔鬼会找出受害者,接下来它们会抓走你。”克里斯汀:“抓我到那里去?”灵媒:“你抓你到天堂里,蒙受永无尽头的炎火熬煎。”
◎幕后揭秘
  著名大导的回归
  提起山姆·雷米,这位已经拍摄过《鬼玩人》的CULT导演自从被《蜘蛛侠》系列招抚以后,大师都渐渐忘怀了他混迹B级可骇片的那段日子,不外对于山姆·雷米自己而言,重回可骇片大本营也是一件令他兴奋的事:“拍摄完《蜘蛛侠》以后,我一向在思考寻觅一个合适自己的作品,率直讲,我对可骇片情之所钟,我希望自己的作品可以在电影院里吓到观众,小时辰我自己也已经偷偷看很多可骇片而被吓得不敢睡觉,我很怀念那段日子,是以当我有机遇踏入电影行业以后,我一向不停的尝试拍摄各类范例的可骇片,它们或多或少都存在一些遗憾,也使得我可以鄙人一步电影里做得更好,《堕入天堂》的故事来历于我朋友告诉我的一段实在履历,他是一个放贷员,已经在工作中碰到很多蛮不讲理的人。虽然阿谁故事很简单,但我却感觉有着改编成为可骇电影的潜质,是以我很快就写好了剧本,只等着有充足的时候来将他拍摄成一部电影。”
  比起曩昔走小本钱线路的单打独斗,《蜘蛛侠》系列的庞大成功令山姆·雷米获得了加倍丰富的资本。山姆·雷米说:“《堕入天堂》是我拍摄的可骇片里投资比力高的一部,这使得我可以加倍专心的去安插场景,以及做出出色的殊效排场。我不是太喜好过度的追求殊效镜头,一部好的可骇片要让观众感觉惧怕,更多的还是应当从故事自己来动身。这部电影写了有关‘天堂’的故事,我们要设想出很多魔鬼的表面,这些都是和全部建造团队商量数次以后才定型的,我相信会令观众感觉线人一新,由于这些魔鬼的外型都是完全原创的,他们在电影中占了很多的戏份,重新至尾都在骚扰女配角。”
  女人做配角的可骇片
  似乎导演们都爱用女星作为可骇片的配角,大如果女人天生弱者的看法,恰好与可骇片里配角面临的庞大危机构成对照。在《堕入天堂》里担任配角女一号的是艾莉森·洛曼,这位年届三十的女星所出演的《火柴人》、《贝奥武夫》等片都令观众印象深入,此次在《堕入天堂》里她将进献大量的“尖叫”,对此艾莉森·洛曼感慨很多:“当我得知自己将会主演一部可骇片的时辰,我心里就感觉兴奋不已,拍摄可骇片是一件很让演员兴奋的事,在影片里你会面临那些可骇的工作声嘶力竭的叫嚷,每拍完一场戏我的感受就像是获得一次畅快淋漓的宣泄。在《堕入天堂》里我饰演的是一位普通的银行职员,但一次秉公行事却让她获咎了不应当获咎的人,我想这类工作在现实里经常会发现,只不外它们绝对不像电影里的结果那末严重。”
  对于本片女配角艾莉森·洛曼的表示,导演山姆·雷米说:“开初的剧本设定里是一对佳耦一路匹敌这起灾难,但我最初点窜了一些情节,配角只剩下女配角一个,我以为这样能加倍激起出观众心里对孤独的恐惧。艾莉森·洛曼在片中吃了很多苦头,有一场戏是她被拖入天堂,虽然那场戏很短,而且利用了殊效,但在现实拍摄的时辰我们是用泥浆来停止帮助拍摄,艾莉森·洛曼差不多数小我都被泥浆包围住,她就这样完成了整场戏的拍摄,而且做得很成功,我对她很有信心,这样一部用女人做配角的可骇片,就是需要像艾莉森·洛曼这样放得开的演员。”
  1. General
  2. Unique ID                                : 15492051295446932748938083569487435217 (0xBA7A919BD0EB841A5B8B255759DD5D1)
  3. Complete name                            : D:\Drag.Me.To.Hell.2009.1080p.UNRATED.BluRay.AVC.AC3.DD5.1.x264-PANAM.mkv
  4. Format                                   : Matroska
  5. Format version                           : Version 4
  6. File size                                : 5.43 GiB
  7. Duration                                 : 1 h 38 min
  8. Overall bit rate mode                    : Variable
  9. Overall bit rate                         : 7 859 kb/s
  10. Frame rate                               : 23.976 FPS
  11. Encoded date                             : 2023-12-30 02:01:04 UTC
  12. Writing application                      : TMPGEnc
  13. Writing library                          : TMPGEnc
  14. Video
  15. ID                                       : 1
  16. Format                                   : AVC
  17. Format/Info                              : Advanced Video Codec
  18. Format profile                           : High@L4
  19. Format settings                          : CABAC / 5 Ref Frames
  20. Format settings, CABAC                   : Yes
  21. Format settings, Reference frames        : 5 frames
  22. Codec ID                                 : V_MPEG4/ISO/AVC
  23. Duration                                 : 1 h 38 min
  24. Bit rate mode                            : Variable
  25. Bit rate                                 : 7 400 kb/s
  26. Maximum bit rate                         : 29.6 Mb/s
  27. Width                                    : 1 920 pixels
  28. Height                                   : 804 pixels
  29. Display aspect ratio                     : 2.39:1
  30. Frame rate mode                          : Constant
  31. Frame rate                               : 23.976 (24000/1001) FPS
  32. Standard                                 : Component
  33. Color space                              : YUV
  34. Chroma subsampling                       : 4:2:0
  35. Bit depth                                : 8 bits
  36. Scan type                                : Progressive
  37. Bits/(Pixel*Frame)                       : 0.200
  38. Stream size                              : 4.88 GiB (90%)
  39. Writing library                          : x264 core 155
  40. Encoding settings                        : cabac=1 / ref=5 / deblock=1:0:0 / analyse=0x3:0x113 / me=hex / subme=7 / psy=1 / psy_rd=1.00:0.00 / mixed_ref=1 / me_range=16 / chroma_me=1 / trellis=1 / 8x8dct=1 / cqm=1 / deadzone=21,11 / fast_pskip=1 / chroma_qp_offset=-2 / threads=25 / lookahead_threads=4 / sliced_threads=0 / slices=1 / nr=0 / decimate=1 / interlaced=0 / minigop=0 / stitchable=1 / constrained_intra=0 / bframes=3 / b_pyramid=0 / b_adapt=1 / b_bias=0 / direct=1 / weightb=1 / open_gop=1 / weightp=2 / keyint=250 / keyint_min=23 / scenecut=40 / intra_refresh=0 / rc_lookahead=40 / rc=abr / mbtree=1 / bitrate=7400 / ratetol=1.0 / qcomp=0.60 / qpmin=3 / qpmax=69 / qpstep=4 / vbv_maxrate=29600 / vbv_bufsize=29600 / nal_hrd=vbr / filler=0 / ip_ratio=1.40 / aq=1:1.00
  41. Default                                  : Yes
  42. Forced                                   : No
  43. Color range                              : Limited
  44. Color primaries                          : BT.709
  45. Transfer characteristics                 : BT.709
  46. Matrix coefficients                      : BT.709
  47. Audio
  48. ID                                       : 2
  49. Format                                   : AC-3
  50. Format/Info                              : Audio Coding 3
  51. Commercial name                          : Dolby Digital
  52. Codec ID                                 : A_AC3
  53. Duration                                 : 1 h 38 min
  54. Bit rate mode                            : Constant
  55. Bit rate                                 : 640 kb/s
  56. Channel(s)                               : 6 channels
  57. Channel layout                           : L R C LFE Ls Rs
  58. Sampling rate                            : 48.0 kHz
  59. Frame rate                               : 31.250 FPS (1536 SPF)
  60. Compression mode                         : Lossy
  61. Stream size                              : 452 MiB (8%)
  62. Service kind                             : Complete Main
  63. Default                                  : Yes
  64. Forced                                   : No
复制代码









回复

使用道具 举报

蓝光币
349
发表于 2024-1-7 07:06:22 | 显示全部楼层

其实我一直觉得楼主的品味不错!呵呵!蓝光电影网太棒了!
回复

使用道具 举报

蓝光币
489
发表于 2024-1-7 09:11:27 | 显示全部楼层

这东西我收了!谢谢楼主!蓝光电影网真好!
回复

使用道具 举报

蓝光币
1777
发表于 2024-1-7 21:23:13 | 显示全部楼层

既然你诚信诚意的推荐了,那我就勉为其难的看看吧!蓝光电影网不走平凡路。
回复

使用道具 举报

蓝光币
123
发表于 2024-1-8 00:23:33 | 显示全部楼层
楼主发贴辛苦了,谢谢楼主分享!我觉得蓝光电影网是注册对了!
回复

使用道具 举报

蓝光币
85
发表于 2024-1-8 20:05:38 | 显示全部楼层
谢谢楼主!蓝光电影网真好!
回复

使用道具 举报

蓝光币
984
发表于 2024-1-8 21:38:57 | 显示全部楼层

其实我一直觉得楼主的品味不错!呵呵!蓝光电影网太棒了!
回复

使用道具 举报

蓝光币
754
发表于 2024-1-9 00:01:24 | 显示全部楼层
楼主发贴辛苦了,谢谢楼主分享!我觉得蓝光电影网是注册对了!
回复

使用道具 举报

蓝光币
362
发表于 2024-1-9 00:02:23 | 显示全部楼层

楼主,我太崇拜你了!我想我是一天也不能离开蓝光电影网。
回复

使用道具 举报

蓝光币
85
发表于 2024-1-9 09:21:41 | 显示全部楼层
谢谢楼主!蓝光电影网真好!
回复

使用道具 举报

懒得打字嘛,点击右侧快捷回复 【右侧内容,后台自定义】
您需要登录后才可以回帖 登录 | 立即加入

本版积分规则

Copyright © 2024 Comsenz Inc. Powered by 蓝光电影网

本站内容由用户自主分享和转载自互联网,转载目的在于传递更多信息,并不代表本网赞同其观点和对其真实性负责。

如有侵权、违反国家法律政策行为,请联系我们,我们会第一时间及时清除和处理!

举报反馈邮箱:4k1080.com@gmail.com

快速回复 返回顶部 返回列表