找回密码

查看: 1190|回复: 29

[剧情] 警察帝国.CopLand.1997.1080p.Directors.Cut.BluRay.AC3.DD5.1.x264-PANAM 8.29GB

[复制链接]
蓝光币
1858
发表于 2024-1-5 16:24:15 | 显示全部楼层 |阅读模式


◎译  名 差人帝国 / 地头龙 / 差人乐园
◎片  名 Cop Land
◎年  代 1997
◎产  地 美国
◎类  别 剧情 / 惊悚 / 犯罪
◎语  言 英语
◎上映日期 1997-08-15
◎IMDb评星  ★★★★★★★☆☆☆
◎IMDb评分  7.0/10 from 104,758 users
◎IMDb链接  https://www.imdb.com/title/tt0118887/
◎豆瓣评星 ★★★✦☆
◎豆瓣评分 6.8/10 from 1,831 users
◎豆瓣链接 https://movie.douban.com/subject/1292751/
◎片  长 105分钟 / 116分钟(导演剪辑版)
◎导  演 詹姆斯·曼高德 / James Mangold
◎演  员 西尔维斯特·史泰龙 / Sylvester Stallone
      哈威·凯特尔 / Harvey Keitel
      雷·利奥塔 / Ray Liotta
      罗伯特·德尼罗 / Robert De Niro
      彼得·博格 / Peter Berg
◎编  剧 詹姆斯·曼高德 / James Mangold
◎制  片  人 凯瑞·奥伦特 / Kerry Orent
      Cathy Konrad Cathy Konrad
      鲍伯·韦恩斯坦 / Bob Weinstein
      卡里·伍兹 / Cary Woods
      Richard Miller Richard Miller
◎剪  辑 克雷格·麦凯 / Craig McKay
◎美  术 Wing Lee Wing Lee
◎化  妆 Judy Lovell Judy Lovell
      Jay McClennen Jay McClennen
◎副  导  演 亨利·亚历克斯·鲁宾 / Henry Alex Rubin
      艾米·林恩 / Amy Lynn
◎简  介 
  故事发生在一个名叫加里森的小镇中,由于镇上居住的大大都都是差人,因而人们亲热的将其成为“差人镇”。一次意外中,警官巴比奇(迈克尔·拉帕波特 Michael Rapaport 饰)误以为两个青年想要开枪向他射击,出于差人的本能,他先发制人将两人击毙。事后,巴比奇才发现,那时那两个年轻人手上拿的底子就不是枪,而是一把偏向盘锁。
  巴比奇的过失成为了当地的丑闻,为了袒护这一丑闻,警界同业们纷纷“出谋献策”,终极,经过同寅们的暗箱操纵,两个年轻人的车里凭空多出了一把枪,巴比奇也成为了一个由于保护小镇战争而失落的豪杰。可是,纸毕竟包不住火,巴比奇和差人镇的奥秘在一次偶然间被一个名叫弗莱迪(西尔维斯特·史泰龙 Sylvester Stallone 饰)的年轻治安官给看破了。
◎幕后揭秘
  由已经的行动片豪杰史泰龙出演Freddy这一不含几多行动成份的配角,使他证实了自己的演技一样是一流的,在本片中他的表演与Robert De Niro相比有过之而无不及。虽然影片犯了一个条件性的毛病:纽约州规定,纽约差人部分的工作职员必须居住在本州呢,但这无损本片的出色。
  1. General
  2. Unique ID                                : 444666772979689439109435117741393104 (0x55A3C3BA97514E95D40B75F309C4D0)
  3. Complete name                            : D:\CopLand.1997.1080p.Directors.Cut.BluRay.AC3.DD5.1.x264-PANAM.mkv
  4. Format                                   : Matroska
  5. Format version                           : Version 4
  6. File size                                : 8.29 GiB
  7. Duration                                 : 1 h 56 min
  8. Overall bit rate mode                    : Variable
  9. Overall bit rate                         : 10.2 Mb/s
  10. Frame rate                               : 23.976 FPS
  11. Encoded date                             : 2023-12-30 16:38:03 UTC
  12. Writing application                      : TMPGEnc
  13. Writing library                          : TMPGEnc
  14. Video
  15. ID                                       : 1
  16. Format                                   : AVC
  17. Format/Info                              : Advanced Video Codec
  18. Format profile                           : High@L4.1
  19. Format settings                          : CABAC / 4 Ref Frames
  20. Format settings, CABAC                   : Yes
  21. Format settings, Reference frames        : 4 frames
  22. Codec ID                                 : V_MPEG4/ISO/AVC
  23. Duration                                 : 1 h 56 min
  24. Bit rate mode                            : Variable
  25. Bit rate                                 : 9 358 kb/s
  26. Nominal bit rate                         : 9 900 kb/s
  27. Maximum bit rate                         : 39.6 Mb/s
  28. Width                                    : 1 920 pixels
  29. Height                                   : 1 080 pixels
  30. Display aspect ratio                     : 16:9
  31. Frame rate mode                          : Constant
  32. Frame rate                               : 23.976 (24000/1001) FPS
  33. Standard                                 : Component
  34. Color space                              : YUV
  35. Chroma subsampling                       : 4:2:0
  36. Bit depth                                : 8 bits
  37. Scan type                                : Progressive
  38. Bits/(Pixel*Frame)                       : 0.188
  39. Stream size                              : 7.60 GiB (92%)
  40. Writing library                          : x264 core 155
  41. Encoding settings                        : cabac=1 / ref=4 / deblock=1:0:0 / analyse=0x3:0x113 / me=umh / subme=8 / psy=1 / psy_rd=1.00:0.00 / mixed_ref=1 / me_range=16 / chroma_me=1 / trellis=1 / 8x8dct=1 / cqm=1 / deadzone=21,11 / fast_pskip=1 / chroma_qp_offset=-2 / threads=34 / lookahead_threads=5 / sliced_threads=0 / slices=1 / nr=0 / decimate=1 / interlaced=0 / minigop=0 / stitchable=1 / constrained_intra=0 / bframes=3 / b_pyramid=0 / b_adapt=2 / b_bias=0 / direct=3 / weightb=1 / open_gop=1 / weightp=2 / keyint=250 / keyint_min=23 / scenecut=40 / intra_refresh=0 / rc_lookahead=50 / rc=abr / mbtree=1 / bitrate=9900 / ratetol=1.0 / qcomp=0.60 / qpmin=3 / qpmax=69 / qpstep=4 / vbv_maxrate=39600 / vbv_bufsize=39600 / nal_hrd=vbr / filler=0 / ip_ratio=1.40 / aq=1:1.00
  42. Default                                  : Yes
  43. Forced                                   : No
  44. Color range                              : Limited
  45. Color primaries                          : BT.709
  46. Transfer characteristics                 : BT.709
  47. Matrix coefficients                      : BT.709
  48. Audio
  49. ID                                       : 2
  50. Format                                   : AC-3
  51. Format/Info                              : Audio Coding 3
  52. Commercial name                          : Dolby Digital
  53. Codec ID                                 : A_AC3
  54. Duration                                 : 1 h 56 min
  55. Bit rate mode                            : Constant
  56. Bit rate                                 : 640 kb/s
  57. Channel(s)                               : 6 channels
  58. Channel layout                           : L R C LFE Ls Rs
  59. Sampling rate                            : 48.0 kHz
  60. Frame rate                               : 31.250 FPS (1536 SPF)
  61. Compression mode                         : Lossy
  62. Stream size                              : 532 MiB (6%)
  63. Service kind                             : Complete Main
  64. Default                                  : Yes
  65. Forced                                   : No
复制代码









回复

使用道具 举报

蓝光币
390
发表于 2024-1-5 19:33:15 来自手机 | 显示全部楼层
史泰龙  的好电影
回复

使用道具 举报

蓝光币
152
发表于 2024-1-5 21:48:18 | 显示全部楼层

史泰龙  的好电影
回复

使用道具 举报

蓝光币
569
发表于 2024-1-6 00:59:30 | 显示全部楼层
竟然还有史泰龙,多谢分享啦
回复

使用道具 举报

蓝光币
54
发表于 2024-1-6 13:15:18 | 显示全部楼层
楼主发贴辛苦了,谢谢楼主分享!我觉得蓝光电影网是注册对了!
回复

使用道具 举报

蓝光币
1
发表于 2024-1-7 16:00:37 | 显示全部楼层

楼主太厉害了!楼主,电影应该很好看我觉得蓝光电影网真是个好地方!
回复

使用道具 举报

蓝光币
306
发表于 2024-1-7 21:47:05 | 显示全部楼层
楼主发贴辛苦了,谢谢楼主分享!我觉得蓝光电影网是注册对了!
回复

使用道具 举报

蓝光币
101
发表于 2024-1-8 09:02:05 | 显示全部楼层
经典老片,值得收藏
回复

使用道具 举报

蓝光币
437
发表于 2024-1-8 17:18:17 | 显示全部楼层
谢谢分享
回复

使用道具 举报

蓝光币
128
发表于 2024-1-9 00:15:05 | 显示全部楼层
楼主发贴辛苦了,谢谢楼主分享!我觉得蓝光电影网是注册对了!
回复

使用道具 举报

懒得打字嘛,点击右侧快捷回复 【右侧内容,后台自定义】
您需要登录后才可以回帖 登录 | 立即加入

本版积分规则

Copyright © 2024 Comsenz Inc. Powered by 蓝光电影网

本站内容由用户自主分享和转载自互联网,转载目的在于传递更多信息,并不代表本网赞同其观点和对其真实性负责。

如有侵权、违反国家法律政策行为,请联系我们,我们会第一时间及时清除和处理!

举报反馈邮箱:4k1080.com@gmail.com

快速回复 返回顶部 返回列表