找回密码

查看: 704|回复: 12

[剧情] 大魔域.The.Never.Ending.Story.1984.1080p.Uncut.BluRay.AVC.AC3.DD.5.1.x264-PANAM 5.68GB

[复制链接]
蓝光币
1840
发表于 2024-1-5 16:24:07 | 显示全部楼层 |阅读模式


◎译  名 大魔域 / 魔域仙踪 / 永久讲不完的故事 / Die unendliche Geschichte
◎片  名 The NeverEnding Story
◎年  代 1984
◎产  地 西德 / 美国
◎类  别 剧情 / 奇异 / 冒险
◎语  言 英语
◎上映日期 1984-07-20
◎IMDb评星  ★★★★★★★✦☆☆
◎IMDb评分  7.3/10 from 154,260 users
◎IMDb链接  https://www.imdb.com/title/tt0088323/
◎豆瓣评星 ★★★✦☆
◎豆瓣评分 6.9/10 from 1,210 users
◎豆瓣链接 https://movie.douban.com/subject/1300074/
◎片  长 102 分钟 / 94 分钟(international version)
◎导  演 沃尔夫冈·彼德森 / Wolfgang Petersen
◎演  员 巴莱特·奥利佛 / Barret Oliver
      杰拉尔德·麦克雷尼 / Gerald McRaney
      德拉姆·加勒特 / Drum Garrett
      达里尔·库克西 / Darryl Cooksey
      尼古拉斯·吉尔伯特 / Nicholas Gilbert
      托马斯·希尔 / Thomas Hill
      迪普·罗伊 / Deep Roy
      斯洛·派克内尔 / Tilo Prückner
      摩西·冈恩 / Moses Gunn
      诺亚·海瑟威 / Noah Hathaway
      艾伦·欧朋海默 / Alan Oppenheimer
      西德尼·布罗姆利 / Sydney Bromley
      帕特里夏·海斯 / Patricia Hayes
      塔米·施特罗纳赫 / Tami Stronach | 饰 The Childlike Empress
      布拉德·雅各布维茨 / Brad Jacobowitz | 饰 Pedestrian
      海因茨·莱纳克 / Heinz Reincke
      Frank Lenart Frank Lenart
      Silvia Seidel Silvia Seidel
◎编  剧 赫尔曼·魏格尔 / Herman Weigel
      沃尔夫冈·彼德森 / Wolfgang Petersen
      米切尔·恩义 / Michael Ende
      罗伯特·伊斯顿 / Robert Easton
◎制  片  人 John W. Hyde John W. Hyde
      马克·达蒙 / Mark Damon
      贝尔恩义·艾辛格 / Bernd Eichinger
      Dieter Geissler Dieter Geissler
      古恩特·荣巴赫 / Günter Rohrbach
◎音  乐 乔治·莫罗德 / Giorgio Moroder
      Klaus Doldinger Klaus Doldinger
◎摄  影 约斯特·瓦卡诺 / Jost Vacano
◎选  角 Risa Kes Risa Kes
      Penny Perry Penny Perry
◎美  术 Götz Weidner Götz Weidner
      赫伯特·斯特拉贝尔 / Herbert Strabel
      罗尔夫·策特鲍尔 / Rolf Zehetbauer
◎化  妆 科林·亚瑟 / Colin Arthur
◎副  导  演 Gordon Mark Gordon Mark
      汉尼斯·尼克尔 / Hannes Nikel
◎视觉殊效 克里斯托弗·埃文斯 / Christopher Evans
      约翰·埃利斯 / John Ellis
      布赖恩·约翰逊 / Brian Johnson
      托马斯·罗塞特 / Thomas Rosseter
      迈克尔·潘格拉齐奥 / Michael Pangrazio
      Ned Gorman Ned Gorman
      布鲁斯·尼科尔森 / Bruce Nicholson
      Martin Gant Martin Gant
      Peter Tyler Peter Tyler
      克莱格·巴朗 / Craig Barron
      马克·贝克 / Mat Beck
      吉姆·丹弗斯 / Jim Danforth
      埃德·琼斯 / Ed Jones
      大卫·芬奇 / David Fincher
◎简  介 
  故事报告小男孩Bastian Bux迷上了一本名叫《永不竣事的故事》的书,故事将Bastian Bux深深吸引到书籍里,甚至让他空想自己就是其中最重要的脚色。而书中描写的空想国逐步被“空无”吞噬,女王由于沉痾没法抵抗“空无”,因而空想国派出勇者Atreyu寻觅拯救女王的药,Bastian Bux就在Atreyu的追随中体验空想国的每个地方、熟悉每小我物,随着Atreyu的欢乐与挫折升沉……
  空想国之所以被“空无”吞噬,是由于她是由人类的空想所缔造出来的国家,当人类不再空想,并忘记那些空想时,空想国固然就什么也不剩了。Bastian Bux最初发现空想国中的人并没有法子拯救他们自己,只要人类才能拯救空想国,他必须靠着丰沛的想像力,重现空想国的朝气……
◎幕后揭秘
  著名导演沃尔夫冈·彼德森(《从海底反击》、《特洛伊》)执导的一部典范童话影片。按照德国家喻户晓的空想文学大师米切尔·恩义的代表作《永不竣事的故事》改编。因剧情新奇、殊效惊人加上动听的配乐,成为那时很是卖座的影片。该片获1985年德国巴伐利亚电影奖最好制片。1985年德国电影奖最好艺术指导。1985年美国科幻和可骇电影协会土星奖最好青年男演员,并获最好空想影片、最好音乐2项提名。1985年葡萄牙Fantasporto奇异电影节国际空想电影奖最好影片提名。
  1. General
  2. Unique ID                                : 282673158895529069583781629607225691298 (0xD4A8DEC020CF0F45870300EA0B798CA2)
  3. Complete name                            : D:\The.Never.Ending.Story.1984.1080p.Uncut.BluRay.AVC.AC3.DD.5.1.x264-PANAM.mkv
  4. Format                                   : Matroska
  5. Format version                           : Version 4
  6. File size                                : 5.68 GiB
  7. Duration                                 : 1 h 41 min
  8. Overall bit rate mode                    : Variable
  9. Overall bit rate                         : 8 031 kb/s
  10. Frame rate                               : 24.000 FPS
  11. Encoded date                             : 2023-12-28 23:46:12 UTC
  12. Writing application                      : TMPGEnc Video Mastering Works 7 Version 7.0.30.33
  13. Writing library                          : TMPGEnc Video Mastering Works 7 Version 7.0.30.33
  14. Video
  15. ID                                       : 1
  16. Format                                   : AVC
  17. Format/Info                              : Advanced Video Codec
  18. Format profile                           : High@L4.1
  19. Format settings                          : CABAC / 5 Ref Frames
  20. Format settings, CABAC                   : Yes
  21. Format settings, Reference frames        : 5 frames
  22. Codec ID                                 : V_MPEG4/ISO/AVC
  23. Duration                                 : 1 h 41 min
  24. Bit rate mode                            : Variable
  25. Bit rate                                 : 7 550 kb/s
  26. Maximum bit rate                         : 30.2 Mb/s
  27. Width                                    : 1 920 pixels
  28. Height                                   : 820 pixels
  29. Display aspect ratio                     : 2.35:1
  30. Frame rate mode                          : Constant
  31. Frame rate                               : 24.000 FPS
  32. Standard                                 : Component
  33. Color space                              : YUV
  34. Chroma subsampling                       : 4:2:0
  35. Bit depth                                : 8 bits
  36. Scan type                                : Progressive
  37. Bits/(Pixel*Frame)                       : 0.200
  38. Stream size                              : 5.11 GiB (90%)
  39. Writing library                          : x264 core 155
  40. Encoding settings                        : cabac=1 / ref=5 / deblock=1:0:0 / analyse=0x3:0x113 / me=umh / subme=8 / psy=1 / psy_rd=1.00:0.00 / mixed_ref=1 / me_range=16 / chroma_me=1 / trellis=1 / 8x8dct=1 / cqm=1 / deadzone=21,11 / fast_pskip=1 / chroma_qp_offset=-2 / threads=26 / lookahead_threads=4 / sliced_threads=0 / slices=1 / nr=0 / decimate=1 / interlaced=0 / minigop=0 / stitchable=1 / constrained_intra=0 / bframes=3 / b_pyramid=0 / b_adapt=2 / b_bias=0 / direct=3 / weightb=1 / open_gop=1 / weightp=2 / keyint=250 / keyint_min=24 / scenecut=40 / intra_refresh=0 / rc_lookahead=50 / rc=abr / mbtree=1 / bitrate=7550 / ratetol=1.0 / qcomp=0.60 / qpmin=3 / qpmax=69 / qpstep=4 / vbv_maxrate=30200 / vbv_bufsize=30200 / nal_hrd=vbr / filler=0 / ip_ratio=1.40 / aq=1:1.00
  41. Default                                  : Yes
  42. Forced                                   : No
  43. Color range                              : Limited
  44. Color primaries                          : BT.709
  45. Transfer characteristics                 : BT.709
  46. Matrix coefficients                      : BT.709
  47. Audio
  48. ID                                       : 2
  49. Format                                   : AC-3
  50. Format/Info                              : Audio Coding 3
  51. Commercial name                          : Dolby Digital
  52. Codec ID                                 : A_AC3
  53. Duration                                 : 1 h 41 min
  54. Bit rate mode                            : Constant
  55. Bit rate                                 : 640 kb/s
  56. Channel(s)                               : 6 channels
  57. Channel layout                           : L R C LFE Ls Rs
  58. Sampling rate                            : 48.0 kHz
  59. Frame rate                               : 31.250 FPS (1536 SPF)
  60. Compression mode                         : Lossy
  61. Stream size                              : 463 MiB (8%)
  62. Service kind                             : Complete Main
  63. Default                                  : Yes
  64. Forced                                   : No
复制代码










回复

使用道具 举报

蓝光币
349
发表于 2024-1-8 16:14:33 | 显示全部楼层

既然你诚信诚意的推荐了,那我就勉为其难的看看吧!蓝光电影网不走平凡路。
回复

使用道具 举报

蓝光币
422
发表于 2024-1-8 17:20:14 | 显示全部楼层
谢谢分享
回复

使用道具 举报

蓝光币
79
发表于 2024-1-10 17:58:04 | 显示全部楼层
故事讲述小男孩B
回复

使用道具 举报

蓝光币
334
发表于 2024-1-11 10:41:12 | 显示全部楼层
楼主发贴辛苦了,谢谢楼主分享!我觉得蓝光电影网是注册对了!
回复

使用道具 举报

蓝光币
706
发表于 2024-1-12 17:04:35 | 显示全部楼层
楼主发贴辛苦了,谢谢楼主分享!我觉得蓝光电影网是注册对了
回复

使用道具 举报

蓝光币
123
发表于 2024-1-13 00:10:06 | 显示全部楼层
谢谢楼主分享
回复

使用道具 举报

蓝光币
7
发表于 2024-1-15 15:27:05 | 显示全部楼层
楼主发贴辛苦了,谢谢楼主分享!我觉得蓝光电影网是注册对了!
回复

使用道具 举报

蓝光币
754
发表于 2024-1-21 00:00:14 | 显示全部楼层
楼主发贴辛苦了,谢谢楼主分享!我觉得蓝光电影网是注册对了!
回复

使用道具 举报

蓝光币
1108
发表于 2024-2-3 00:57:10 | 显示全部楼层
年代很久远的片子!
回复

使用道具 举报

懒得打字嘛,点击右侧快捷回复 【右侧内容,后台自定义】
您需要登录后才可以回帖 登录 | 立即加入

本版积分规则

Copyright © 2024 Comsenz Inc. Powered by 蓝光电影网

本站内容由用户自主分享和转载自互联网,转载目的在于传递更多信息,并不代表本网赞同其观点和对其真实性负责。

如有侵权、违反国家法律政策行为,请联系我们,我们会第一时间及时清除和处理!

举报反馈邮箱:4k1080.com@gmail.com

快速回复 返回顶部 返回列表