找回密码

查看: 932|回复: 16

[喜剧] 七宝奇谋.The Goonies 1985 1080p BluRay DV HDR X265 DD 5 1-Chivaman 4.85GB

[复制链接]
蓝光币
1858
发表于 2024-1-5 16:23:52 | 显示全部楼层 |阅读模式


◎译  名 七宝奇谋 / 小灵精
◎片  名 The Goonies
◎年  代 1985
◎产  地 美国
◎类  别 笑剧 / 家庭 / 冒险
◎语  言 英语 / 西班牙语 / 粤语 / 意大利语
◎上映日期 1985-06-07
◎IMDb评星  ★★★★★★★✦☆☆
◎IMDb评分  7.7/10 from 293,729 users
◎IMDb链接  https://www.imdb.com/title/tt0089218/
◎豆瓣评星 ★★★★☆
◎豆瓣评分 7.5/10 from 4,252 users
◎豆瓣链接 https://movie.douban.com/subject/1298273/
◎片  长 114 分钟
◎导  演 理查德·唐纳 / Richard Donner
◎演  员 西恩·奥斯汀 / Sean Astin
      乔什·布洛林 / Josh Brolin
      杰夫·科恩 / Jeff Cohen
      科里·费尔德曼 / Corey Feldman
      凯利·格林 / Kerri Green | 饰 Andy Carmichael
      玛莎·普林顿 / Martha Plimpton
      关继威 / Ke Huy Quan
      John Matuszak John Matuszak
      罗伯特·戴维 / Robert Davi
      乔·潘托里亚诺 / Joe Pantoliano
      安妮·拉姆塞 / Anne Ramsey
      露贝·安缇维洛 / Lupe Ontiveros
      玛丽·艾伦·特雷纳 / Mary Ellen Trainor
      基思·沃克 / Keith Walker
      史蒂芬·安汀 / Steven Antin
      George Robotham George Robotham
      Charles McDaniel Charles McDaniel
      迈克尔·保罗·陈 / Michael Paul Chan
      Nick McLean Nick McLean
      Jeb Stuart Adams Jeb Stuart Adams
      吉纳·罗斯 / Gene Ross
      纽维特·阿诺 / Newt Arnold
      理查德·唐纳 / Richard Donner
      辛迪·劳帕 / Cyndi Lauper
◎编  剧 克里斯·哥伦布 / Chris Columbus
      史蒂文·斯皮尔伯格 / Steven Spielberg
◎制  片  人 凯瑟琳·肯尼迪 / Kathleen Kennedy
◎选  角 朱迪·泰勒 / Judy Taylor
      迈克·芬顿 / Mike Fenton
◎美  术 琳达·德森纳 / Linda DeScenna
      瑞克·卡特 / Rick Carter
◎服  装 Richard La Motte Richard La Motte
◎化  妆 托马斯·R·伯曼 / Thomas R. Burman
      Ellis Burman Jr. Ellis Burman Jr.
      巴里·德雷班德-布尔曼 / Bari Dreiband-Burman
◎副  导  演 Dan Kolsrud Dan Kolsrud
◎视觉殊效 克莱格·巴朗 / Craig Barron
      Ned Gorman Ned Gorman
      保罗·哈特森 / Paul Huston
      埃德·琼斯 / Ed Jones
      迈克尔·J·麦卡利斯特尔 / Michael J. McAlister
      杰克·莫多万 / Jack Mongovan
      Charlie Mullen Charlie Mullen
      迈克尔·潘格拉齐奥 / Michael Pangrazio
      Martin Rosenberg Martin Rosenberg
      托马斯·罗塞特 / Thomas Rosseter
      比尔·乔治 / Bill George
      肯尼斯·史姑娘 / Kenneth Smith
      克里斯托弗·埃文斯 / Christopher Evans
      约翰·埃利斯 / John Ellis
      Wes Takahashi Wes Takahashi
      芭芭拉·布伦南 / Barbara Brennan
◎简  介 
  故事发生在美国西岸的一个小镇中,开辟者的到来侵扰了当地居民的安静生活,他们诡计将这片人们赖以保存的地盘据为己有,对于居民们来说,流浪失所的生活似乎在所难免。米奇(西恩·奥斯汀 Sean Astin 饰)和布莱登(乔什·布洛林 Josh Brolin 饰)是一对兄弟,一次偶然中,他们获得了一张年月久远的海盗藏宝图。这一发现让兄弟两人欣喜若狂,由于假如藏宝图所言不假,那末他们就可以守住他们的故里。
  在朋友们的帮助下,兄弟两人找到了宝藏的进口,它不在别处,正在福瑞特利家的楼下。让众人感应非常头痛的是,这个福瑞特利家属在小镇上有着远扬的坏名声,当宝藏存在的消息风行一时后,他们明显已经为了可以将其据为己有而展开了行动。
◎幕后揭秘
  著名大导演Steven Spielberg编剧的电影能有错吗,这部电影的配角是几位身世清贫的小孩,他们居住的海边离时髦都会悠远,在电影看不到青春片中常见的时兴商标。理查德·唐纳导演的少年版《法柜奇兵》,全片有相当热烈的机关布景,行动氛围也处置得松散好玩,加上Sean Astin等一群童星的活泼表演,组成了一部相当都雅的儿童电影。
  1. Complete name                  : The.Goonies.1985.1080p.BluRay.DV.HDR.X265.DD.5.1-Chivaman.mkv
  2. Format                         : Matroska
  3. Format version                 : Version 4 / Version 2
  4. File size                      : 4.85 GiB
  5. Duration                       : 1 h 53 min
  6. Overall bit rate               : 6 096 kb/s
  7. Frame rate                     : 23.976 FPS
  8. Encoded date                   : 2023-11-29 14:47:11 UTC
  9. Writing application            : mkvmerge v80.0 ('Roundabout') 64-bit
  10. Writing library                : libebml v1.4.4 + libmatroska v1.7.1 / Lavf60.14.100
  11. Video
  12. ID                             : 1
  13. Format                         : HEVC
  14. Format/Info                    : High Efficiency Video Coding
  15. Format profile                 : Main 10@L5@Main
  16. HDR format                     : Dolby Vision, Version 1.0, dvhe.08.03, BL+RPU, HDR10 compatible / SMPTE ST 2086, HDR10 compatible / SMPTE ST 2086, HDR10 compatible
  17. Codec ID                       : V_MPEGH/ISO/HEVC
  18. Duration                       : 1 h 53 min
  19. Bit rate                       : 4 854 kb/s
  20. Width                          : 1 920 pixels
  21. Height                         : 800 pixels
  22. Display aspect ratio           : 2.40:1
  23. Frame rate mode                : Constant
  24. Frame rate                     : 23.976 (24000/1001) FPS
  25. Color space                    : YUV
  26. Chroma subsampling             : 4:2:0 (Type 2)
  27. Bit depth                      : 10 bits
  28. Bits/(Pixel*Frame)             : 0.132
  29. Stream size                    : 3.86 GiB (80%)
  30. Writing library                : x265 3.5+1-f0c1022b6:[Windows][GCC 13.2.0][64 bit] 10bit
  31. Encoding settings              : cpuid=1111039 / frame-threads=4 / numa-pools=24 / wpp / no-pmode / no-pme / no-psnr / no-ssim / log-level=2 / input-csp=1 / input-res=1920x800 / interlace=0 / total-frames=0 / level-idc=50 / high-tier=1 / uhd-bd=0 / ref=3 / no-allow-non-conformance / repeat-headers / annexb / aud / no-eob / no-eos / hrd / info / hash=0 / temporal-layers=0 / no-open-gop / min-keyint=24 / keyint=240 / gop-lookahead=0 / bframes=4 / b-adapt=2 / b-pyramid / bframe-bias=0 / rc-lookahead=60 / lookahead-slices=5 / scenecut=40 / no-hist-scenecut / radl=0 / no-splice / no-intra-refresh / ctu=32 / min-cu-size=8 / no-rect / no-amp / max-tu-size=32 / tu-inter-depth=1 / tu-intra-depth=1 / limit-tu=0 / rdoq-level=2 / dynamic-rd=0.00 / no-ssim-rd / signhide / no-tskip / nr-intra=0 / nr-inter=0 / no-constrained-intra / no-strong-intra-smoothing / max-merge=3 / limit-refs=3 / limit-modes / me=3 / subme=5 / merange=25 / temporal-mvp / no-frame-dup / no-hme / weightp / no-weightb / no-analyze-src-pics / deblock=-2:-2 / no-sao / no-sao-non-deblock / rd=3 / selective-sao=0 / early-skip / rskip / rskip-edge-threshold=0.030000 / no-fast-intra / no-tskip-fast / no-cu-lossless / no-b-intra / splitrd-skip / rdpenalty=0 / psy-rd=0.50 / psy-rdoq=1.00 / no-rd-refine / no-lossless / cbqpoffs=0 / crqpoffs=0 / rc=abr / bitrate=4900 / qcomp=0.60 / qpstep=4 / stats-write=0 / stats-read=0 / vbv-maxrate=20480 / vbv-bufsize=20480 / vbv-init=0.9 / min-vbv-fullness=50.0 / max-vbv-fullness=80.0 / ipratio=1.40 / pbratio=1.30 / aq-mode=1 / aq-strength=0.90 / no-cutree / zone-count=0 / no-strict-cbr / qg-size=32 / no-rc-grain / qpmax=69 / qpmin=0 / no-const-vbv / sar=1 / overscan=0 / videoformat=5 / range=0 / colorprim=9 / transfer=16 / colormatrix=9 / chromaloc=1 / chromaloc-top=2 / chromaloc-bottom=2 / display-window=0 / master-display=G(13250,34500)B(7500,3000)R(34000,16000)WP(15635,16450)L(40000000,50) / cll=3471,99 / min-luma=0 / max-luma=1023 / log2-max-poc-lsb=8 / vui-timing-info / vui-hrd-info / slices=1 / opt-qp-pps / opt-ref-list-length-pps / no-multi-pass-opt-rps / scenecut-bias=0.05 / no-opt-cu-delta-qp / no-aq-motion / hdr10 / hdr10-opt / no-dhdr10-opt / no-idr-recovery-sei / analysis-reuse-level=0 / analysis-save-reuse-level=0 / analysis-load-reuse-level=0 / scale-factor=0 / refine-intra=0 / refine-inter=0 / refine-mv=1 / refine-ctu-distortion=0 / no-limit-sao / ctu-info=0 / no-lowpass-dct / refine-analysis-type=0 / copy-pic=1 / max-ausize-factor=1.0 / no-dynamic-refine / no-single-sei / no-hevc-aq / no-svt / no-field / qp-adaptation-range=1.00 / scenecut-aware-qp=0conformance-window-offsets / right=0 / bottom=0 / decoder-max-rate=0 / no-vbv-live-multi-pass / no-mcstf / no-sbrc
  32. Default                        : Yes
  33. Forced                         : No
  34. Color range                    : Limited
  35. Color primaries                : BT.2020
  36. Transfer characteristics       : PQ
  37. Matrix coefficients            : BT.2020 non-constant
  38. Mastering display color primar : Display P3
  39. Mastering display luminance    : min: 0.0050 cd/m2, max: 4000 cd/m2
  40. Maximum Content Light Level    : 3471
  41. MaxCLL_Original                : 3471 cd/m2
  42. Maximum Frame-Average Light Le : 99
  43. MaxFALL_Original               : 99 cd/m2
  44. Audio #1
  45. ID                             : 2
  46. Format                         : AC-3
  47. Format/Info                    : Audio Coding 3
  48. Commercial name                : Dolby Digital
  49. Codec ID                       : A_AC3
  50. Duration                       : 1 h 53 min
  51. Bit rate mode                  : Constant
  52. Bit rate                       : 640 kb/s
  53. Channel(s)                     : 6 channels
  54. Channel layout                 : L R C LFE Ls Rs
  55. Sampling rate                  : 48.0 kHz
  56. Frame rate                     : 31.250 FPS (1536 SPF)
  57. Compression mode               : Lossy
  58. Stream size                    : 522 MiB (10%)
  59. Title                          : Dolby Digital 5.1
  60. Language                       : English
  61. Service kind                   : Complete Main
  62. Default                        : Yes
  63. Forced                         : No
  64. Audio #2
  65. ID                             : 3
  66. Format                         : AAC LC
  67. Format/Info                    : Advanced Audio Codec Low Complexity
  68. Codec ID                       : A_AAC-2
  69. Duration                       : 1 h 53 min
  70. Bit rate                       : 96.0 kb/s
  71. Channel(s)                     : 2 channels
  72. Channel layout                 : L R
  73. Sampling rate                  : 48.0 kHz
  74. Frame rate                     : 46.875 FPS (1024 SPF)
  75. Compression mode               : Lossy
  76. Stream size                    : 79.3 MiB (2%)
  77. Title                          : Commentary with director Richard Donner and seven Actors
  78. Language                       : English
  79. Default                        : No
  80. Forced                         : No
  81. Text #1
  82. ID                             : 4
  83. Format                         : PGS
  84. Muxing mode                    : zlib
  85. Codec ID                       : S_HDMV/PGS
  86. Codec ID/Info                  : Picture based subtitle format used on BDs/HD-DVDs
  87. Duration                       : 1 h 48 min
  88. Bit rate                       : 38.2 kb/s
  89. Frame rate                     : 0.501 FPS
  90. Count of elements              : 3258
  91. Stream size                    : 29.6 MiB (0%)
  92. Language                       : English
  93. Default                        : Yes
  94. Forced                         : No
  95. Text #2
  96. ID                             : 5
  97. Format                         : PGS
  98. Muxing mode                    : zlib
  99. Codec ID                       : S_HDMV/PGS
  100. Codec ID/Info                  : Picture based subtitle format used on BDs/HD-DVDs
  101. Duration                       : 1 h 53 min
  102. Bit rate                       : 30.0 kb/s
  103. Frame rate                     : 0.413 FPS
  104. Count of elements              : 2806
  105. Stream size                    : 24.3 MiB (0%)
  106. Language                       : Chinese
  107. Default                        : No
  108. Forced                         : No
  109. Text #3
  110. ID                             : 6
  111. Format                         : PGS
  112. Muxing mode                    : zlib
  113. Codec ID                       : S_HDMV/PGS
  114. Codec ID/Info                  : Picture based subtitle format used on BDs/HD-DVDs
  115. Duration                       : 1 h 53 min
  116. Bit rate                       : 24.5 kb/s
  117. Frame rate                     : 0.407 FPS
  118. Count of elements              : 2764
  119. Stream size                    : 19.8 MiB (0%)
  120. Language                       : Czech
  121. Default                        : No
  122. Forced                         : No
  123. Text #4
  124. ID                             : 7
  125. Format                         : PGS
  126. Muxing mode                    : zlib
  127. Codec ID                       : S_HDMV/PGS
  128. Codec ID/Info                  : Picture based subtitle format used on BDs/HD-DVDs
  129. Duration                       : 1 h 53 min
  130. Bit rate                       : 23.1 kb/s
  131. Frame rate                     : 0.311 FPS
  132. Count of elements              : 2110
  133. Stream size                    : 18.7 MiB (0%)
  134. Language                       : Danish
  135. Default                        : No
  136. Forced                         : No
  137. Text #5
  138. ID                             : 8
  139. Format                         : PGS
  140. Muxing mode                    : zlib
  141. Codec ID                       : S_HDMV/PGS
  142. Codec ID/Info                  : Picture based subtitle format used on BDs/HD-DVDs
  143. Duration                       : 1 h 53 min
  144. Bit rate                       : 28.6 kb/s
  145. Frame rate                     : 0.323 FPS
  146. Count of elements              : 2190
  147. Stream size                    : 23.2 MiB (0%)
  148. Language                       : Dutch
  149. Default                        : No
  150. Forced                         : No
  151. Text #6
  152. ID                             : 9
  153. Format                         : PGS
  154. Muxing mode                    : zlib
  155. Codec ID                       : S_HDMV/PGS
  156. Codec ID/Info                  : Picture based subtitle format used on BDs/HD-DVDs
  157. Duration                       : 1 h 53 min
  158. Bit rate                       : 25.2 kb/s
  159. Frame rate                     : 0.308 FPS
  160. Count of elements              : 2090
  161. Stream size                    : 20.4 MiB (0%)
  162. Language                       : Finnish
  163. Default                        : No
  164. Forced                         : No
  165. Text #7
  166. ID                             : 10
  167. Format                         : PGS
  168. Muxing mode                    : zlib
  169. Codec ID                       : S_HDMV/PGS
  170. Codec ID/Info                  : Picture based subtitle format used on BDs/HD-DVDs
  171. Duration                       : 1 h 53 min
  172. Bit rate                       : 23.4 kb/s
  173. Frame rate                     : 0.337 FPS
  174. Count of elements              : 2286
  175. Stream size                    : 18.9 MiB (0%)
  176. Language                       : French
  177. Default                        : No
  178. Forced                         : No
  179. Text #8
  180. ID                             : 11
  181. Format                         : PGS
  182. Muxing mode                    : zlib
  183. Codec ID                       : S_HDMV/PGS
  184. Codec ID/Info                  : Picture based subtitle format used on BDs/HD-DVDs
  185. Duration                       : 1 h 53 min
  186. Bit rate                       : 31.6 kb/s
  187. Frame rate                     : 0.427 FPS
  188. Count of elements              : 2902
  189. Stream size                    : 25.6 MiB (0%)
  190. Language                       : German
  191. Default                        : No
  192. Forced                         : No
  193. Text #9
  194. ID                             : 12
  195. Format                         : PGS
  196. Muxing mode                    : zlib
  197. Codec ID                       : S_HDMV/PGS
  198. Codec ID/Info                  : Picture based subtitle format used on BDs/HD-DVDs
  199. Duration                       : 1 h 53 min
  200. Bit rate                       : 28.8 kb/s
  201. Frame rate                     : 0.406 FPS
  202. Count of elements              : 2760
  203. Stream size                    : 23.4 MiB (0%)
  204. Language                       : Italian
  205. Default                        : No
  206. Forced                         : No
  207. Text #10
  208. ID                             : 13
  209. Format                         : PGS
  210. Muxing mode                    : zlib
  211. Codec ID                       : S_HDMV/PGS
  212. Codec ID/Info                  : Picture based subtitle format used on BDs/HD-DVDs
  213. Duration                       : 1 h 47 min
  214. Bit rate                       : 20.5 kb/s
  215. Frame rate                     : 0.375 FPS
  216. Count of elements              : 2424
  217. Stream size                    : 15.8 MiB (0%)
  218. Language                       : Japanese
  219. Default                        : No
  220. Forced                         : No
  221. Text #11
  222. ID                             : 14
  223. Format                         : PGS
  224. Muxing mode                    : zlib
  225. Codec ID                       : S_HDMV/PGS
  226. Codec ID/Info                  : Picture based subtitle format used on BDs/HD-DVDs
  227. Duration                       : 1 h 53 min
  228. Bit rate                       : 19.7 kb/s
  229. Frame rate                     : 0.403 FPS
  230. Count of elements              : 2738
  231. Stream size                    : 16.0 MiB (0%)
  232. Language                       : Korean
  233. Default                        : No
  234. Forced                         : No
  235. Text #12
  236. ID                             : 15
  237. Format                         : PGS
  238. Muxing mode                    : zlib
  239. Codec ID                       : S_HDMV/PGS
  240. Codec ID/Info                  : Picture based subtitle format used on BDs/HD-DVDs
  241. Duration                       : 1 h 53 min
  242. Bit rate                       : 18.9 kb/s
  243. Frame rate                     : 0.241 FPS
  244. Count of elements              : 1642
  245. Stream size                    : 15.3 MiB (0%)
  246. Language                       : Norwegian
  247. Default                        : No
  248. Forced                         : No
  249. Text #13
  250. ID                             : 16
  251. Format                         : PGS
  252. Muxing mode                    : zlib
  253. Codec ID                       : S_HDMV/PGS
  254. Codec ID/Info                  : Picture based subtitle format used on BDs/HD-DVDs
  255. Duration                       : 1 h 53 min
  256. Bit rate                       : 23.5 kb/s
  257. Frame rate                     : 0.357 FPS
  258. Count of elements              : 2432
  259. Stream size                    : 19.1 MiB (0%)
  260. Language                       : Portuguese
  261. Default                        : No
  262. Forced                         : No
  263. Text #14
  264. ID                             : 17
  265. Format                         : PGS
  266. Muxing mode                    : zlib
  267. Codec ID                       : S_HDMV/PGS
  268. Codec ID/Info                  : Picture based subtitle format used on BDs/HD-DVDs
  269. Duration                       : 1 h 53 min
  270. Bit rate                       : 28.7 kb/s
  271. Frame rate                     : 0.406 FPS
  272. Count of elements              : 2762
  273. Stream size                    : 23.3 MiB (0%)
  274. Language                       : Romanian
  275. Default                        : No
  276. Forced                         : No
  277. Text #15
  278. ID                             : 18
  279. Format                         : PGS
  280. Muxing mode                    : zlib
  281. Codec ID                       : S_HDMV/PGS
  282. Codec ID/Info                  : Picture based subtitle format used on BDs/HD-DVDs
  283. Duration                       : 1 h 53 min
  284. Bit rate                       : 26.3 kb/s
  285. Frame rate                     : 0.405 FPS
  286. Count of elements              : 2750
  287. Stream size                    : 21.3 MiB (0%)
  288. Language                       : Spanish
  289. Default                        : No
  290. Forced                         : No
  291. Text #16
  292. ID                             : 19
  293. Format                         : PGS
  294. Muxing mode                    : zlib
  295. Codec ID                       : S_HDMV/PGS
  296. Codec ID/Info                  : Picture based subtitle format used on BDs/HD-DVDs
  297. Duration                       : 1 h 53 min
  298. Bit rate                       : 20.2 kb/s
  299. Frame rate                     : 0.245 FPS
  300. Count of elements              : 1666
  301. Stream size                    : 16.4 MiB (0%)
  302. Language                       : Swedish
  303. Default                        : No
  304. Forced                         : No
  305. Text #17
  306. ID                             : 20
  307. Format                         : PGS
  308. Muxing mode                    : zlib
  309. Codec ID                       : S_HDMV/PGS
  310. Codec ID/Info                  : Picture based subtitle format used on BDs/HD-DVDs
  311. Duration                       : 1 h 53 min
  312. Bit rate                       : 32.3 kb/s
  313. Frame rate                     : 0.413 FPS
  314. Count of elements              : 2810
  315. Stream size                    : 26.2 MiB (0%)
  316. Language                       : Thai
  317. Default                        : No
  318. Forced                         : No
  319. Text #18
  320. ID                             : 21
  321. Format                         : PGS
  322. Muxing mode                    : zlib
  323. Codec ID                       : S_HDMV/PGS
  324. Codec ID/Info                  : Picture based subtitle format used on BDs/HD-DVDs
  325. Duration                       : 1 h 53 min
  326. Bit rate                       : 66.3 kb/s
  327. Frame rate                     : 0.744 FPS
  328. Count of elements              : 5064
  329. Stream size                    : 53.8 MiB (1%)
  330. Title                          : Commentary
  331. Language                       : English
  332. Default                        : No
  333. Forced                         : No
  334. Text #19
  335. ID                             : 22
  336. Format                         : PGS
  337. Muxing mode                    : zlib
  338. Codec ID                       : S_HDMV/PGS
  339. Codec ID/Info                  : Picture based subtitle format used on BDs/HD-DVDs
  340. Duration                       : 1 h 53 min
  341. Bit rate                       : 51.0 kb/s
  342. Frame rate                     : 0.700 FPS
  343. Count of elements              : 4772
  344. Stream size                    : 41.5 MiB (1%)
  345. Title                          : Commentary
  346. Language                       : Chinese
  347. Default                        : No
  348. Forced                         : No
  349. Text #20
  350. ID                             : 23
  351. Format                         : PGS
  352. Muxing mode                    : zlib
  353. Codec ID                       : S_HDMV/PGS
  354. Codec ID/Info                  : Picture based subtitle format used on BDs/HD-DVDs
  355. Duration                       : 1 h 53 min
  356. Bit rate                       : 48.9 kb/s
  357. Frame rate                     : 0.700 FPS
  358. Count of elements              : 4770
  359. Stream size                    : 39.7 MiB (1%)
  360. Title                          : Commentary
  361. Language                       : Danish
  362. Default                        : No
  363. Forced                         : No
  364. Text #21
  365. ID                             : 24
  366. Format                         : PGS
  367. Muxing mode                    : zlib
  368. Codec ID                       : S_HDMV/PGS
  369. Codec ID/Info                  : Picture based subtitle format used on BDs/HD-DVDs
  370. Duration                       : 1 h 53 min
  371. Bit rate                       : 53.3 kb/s
  372. Frame rate                     : 0.684 FPS
  373. Count of elements              : 4656
  374. Stream size                    : 43.3 MiB (1%)
  375. Title                          : Commentary
  376. Language                       : Dutch
  377. Default                        : No
  378. Forced                         : No
  379. Text #22
  380. ID                             : 25
  381. Format                         : PGS
  382. Muxing mode                    : zlib
  383. Codec ID                       : S_HDMV/PGS
  384. Codec ID/Info                  : Picture based subtitle format used on BDs/HD-DVDs
  385. Duration                       : 1 h 53 min
  386. Bit rate                       : 51.9 kb/s
  387. Frame rate                     : 0.639 FPS
  388. Count of elements              : 4350
  389. Stream size                    : 42.2 MiB (1%)
  390. Title                          : Commentary
  391. Language                       : Finnish
  392. Default                        : No
  393. Forced                         : No
  394. Text #23
  395. ID                             : 26
  396. Format                         : PGS
  397. Muxing mode                    : zlib
  398. Codec ID                       : S_HDMV/PGS
  399. Codec ID/Info                  : Picture based subtitle format used on BDs/HD-DVDs
  400. Duration                       : 1 h 53 min
  401. Bit rate                       : 50.3 kb/s
  402. Frame rate                     : 0.703 FPS
  403. Count of elements              : 4802
  404. Stream size                    : 41.0 MiB (1%)
  405. Title                          : Commentary
  406. Language                       : French
  407. Default                        : No
  408. Forced                         : No
  409. Text #24
  410. ID                             : 27
  411. Format                         : PGS
  412. Muxing mode                    : zlib
  413. Codec ID                       : S_HDMV/PGS
  414. Codec ID/Info                  : Picture based subtitle format used on BDs/HD-DVDs
  415. Duration                       : 1 h 53 min
  416. Bit rate                       : 67.8 kb/s
  417. Frame rate                     : 0.753 FPS
  418. Count of elements              : 5138
  419. Stream size                    : 55.1 MiB (1%)
  420. Title                          : Commentary
  421. Language                       : German
  422. Default                        : No
  423. Forced                         : No
  424. Text #25
  425. ID                             : 28
  426. Format                         : PGS
  427. Muxing mode                    : zlib
  428. Codec ID                       : S_HDMV/PGS
  429. Codec ID/Info                  : Picture based subtitle format used on BDs/HD-DVDs
  430. Duration                       : 1 h 53 min
  431. Bit rate                       : 61.3 kb/s
  432. Frame rate                     : 0.722 FPS
  433. Count of elements              : 4930
  434. Stream size                    : 49.8 MiB (1%)
  435. Title                          : Commentary
  436. Language                       : Italian
  437. Default                        : No
  438. Forced                         : No
  439. Text #26
  440. ID                             : 29
  441. Format                         : PGS
  442. Muxing mode                    : zlib
  443. Codec ID                       : S_HDMV/PGS
  444. Codec ID/Info                  : Picture based subtitle format used on BDs/HD-DVDs
  445. Duration                       : 1 h 53 min
  446. Bit rate                       : 52.3 kb/s
  447. Frame rate                     : 0.668 FPS
  448. Count of elements              : 4546
  449. Stream size                    : 42.5 MiB (1%)
  450. Title                          : Commentary
  451. Language                       : Norwegian
  452. Default                        : No
  453. Forced                         : No
  454. Text #27
  455. ID                             : 30
  456. Format                         : PGS
  457. Muxing mode                    : zlib
  458. Codec ID                       : S_HDMV/PGS
  459. Codec ID/Info                  : Picture based subtitle format used on BDs/HD-DVDs
  460. Duration                       : 1 h 53 min
  461. Bit rate                       : 60.2 kb/s
  462. Frame rate                     : 0.713 FPS
  463. Count of elements              : 4856
  464. Stream size                    : 48.9 MiB (1%)
  465. Title                          : Commentary
  466. Language                       : Portuguese
  467. Default                        : No
  468. Forced                         : No
  469. Text #28
  470. ID                             : 31
  471. Format                         : PGS
  472. Muxing mode                    : zlib
  473. Codec ID                       : S_HDMV/PGS
  474. Codec ID/Info                  : Picture based subtitle format used on BDs/HD-DVDs
  475. Duration                       : 1 h 53 min
  476. Bit rate                       : 51.5 kb/s
  477. Frame rate                     : 0.709 FPS
  478. Count of elements              : 4842
  479. Stream size                    : 41.9 MiB (1%)
  480. Title                          : Commentary
  481. Language                       : Spanish
  482. Default                        : No
  483. Forced                         : No
  484. Text #29
  485. ID                             : 32
  486. Format                         : PGS
  487. Muxing mode                    : zlib
  488. Codec ID                       : S_HDMV/PGS
  489. Codec ID/Info                  : Picture based subtitle format used on BDs/HD-DVDs
  490. Duration                       : 1 h 53 min
  491. Bit rate                       : 42.1 kb/s
  492. Frame rate                     : 0.655 FPS
  493. Count of elements              : 4462
  494. Stream size                    : 34.2 MiB (1%)
  495. Title                          : Commentary
  496. Language                       : Swedish
  497. Default                        : No
  498. Forced                         : No
复制代码










回复

使用道具 举报

蓝光币
566
发表于 2024-1-6 08:37:49 | 显示全部楼层

这东西我收了!谢谢楼主!蓝光电影网真好!
回复

使用道具 举报

蓝光币
1
发表于 2024-1-7 15:57:43 | 显示全部楼层
楼主发贴辛苦了,谢谢楼主分享!我觉得蓝光电影网是注册对了!
回复

使用道具 举报

蓝光币
103
发表于 2024-1-8 16:15:16 | 显示全部楼层
资源不错过,感谢分享
回复

使用道具 举报

蓝光币
685
发表于 2024-1-8 19:46:29 | 显示全部楼层

楼主太厉害了!楼主,电影应该很好看我觉得蓝光电影网真是个好地方!
回复

使用道具 举报

蓝光币
52
发表于 2024-1-9 16:29:33 | 显示全部楼层
楼主发贴辛苦了,谢谢楼主分享!我觉得蓝光电影网是注册对了!
回复

使用道具 举报

蓝光币
49
发表于 2024-1-14 10:13:20 | 显示全部楼层
感谢分享
回复

使用道具 举报

蓝光币
5
发表于 2024-1-14 21:38:16 | 显示全部楼层

这东西我收了!谢谢楼主!蓝光电影网真好!
回复

使用道具 举报

蓝光币
6
发表于 2024-1-28 13:27:30 | 显示全部楼层

既然你诚信诚意的推荐了,那我就勉为其难的看看吧!蓝光电影网不走平凡路。
回复

使用道具 举报

蓝光币
1120
发表于 2024-2-1 22:18:43 | 显示全部楼层
这片子相当经典了!还有8位游戏!
回复

使用道具 举报

懒得打字嘛,点击右侧快捷回复 【右侧内容,后台自定义】
您需要登录后才可以回帖 登录 | 立即加入

本版积分规则

Copyright © 2024 Comsenz Inc. Powered by 蓝光电影网

本站内容由用户自主分享和转载自互联网,转载目的在于传递更多信息,并不代表本网赞同其观点和对其真实性负责。

如有侵权、违反国家法律政策行为,请联系我们,我们会第一时间及时清除和处理!

举报反馈邮箱:4k1080.com@gmail.com

快速回复 返回顶部 返回列表