找回密码

查看: 1188|回复: 26

[喜剧] 鹰国有个好赖坞.The.Harry.Hill.Movie.2013.1080p.BluRay.AVC.AC3.DD5.1.x264-PANAM 6.30GB

[复制链接]
蓝光币
1858
发表于 2023-12-29 10:20:02 | 显示全部楼层 |阅读模式


◎译  名 鹰国有个好赖坞
◎片  名 The Harry Hill Movie
◎年  代 2013
◎产  地 英国
◎类  别 笑剧 / 歌舞
◎语  言 英语
◎上映日期 2013-12-20(英国)
◎IMDb评星  ★★★★☆☆☆☆☆☆
◎IMDb评分  3.9/10 from 2,348 users
◎IMDb链接  https://www.imdb.com/title/tt3013528/
◎豆瓣链接 https://movie.douban.com/subject/25868104/
◎导  演 史蒂夫·班德莱克 / Steve Bendelack
◎演  员 朱丽·沃特斯 / Julie Walters
      朱莉·沃洛诺 / Julie Vollono | 饰 Theatre Patron
      卡米拉·比普特 / Camilla Beeput  | 饰 Veterinary Receptionist
◎编  剧 乔恩·福斯特 / Jon Foster
      丹尼尔·梅斯 / Daniel Mays
◎简  介 
  Under the mistaken impression that his pet hamster, Abu, is ill Harry Hill and his Nan (Julie Walters) take him to the vet, who wrongly gives them the tragic news that Abu has one week to live. Harry, who thinks he speaks fluent hamster (but, in fact, misunderstands every squeak that comes out of his little pal's mouth), incorrectly thinks Abu's dying wish is a trip to Blackpool. With Nan making three, the trio embark on a road trip to the seaside town. Unbeknownst to them, the Vet is actually the dirty rotten henchman of Harry's evil twin brother Otto (Matt Lucas), who was raised separately by Alsatians. Addicted to Hula-Hoops and fueled by revenge, Otto's nefarious plot is to kidnap Abu and make him the centerpiece of the plastinated hamster world he's creating in his evil lair. Can Harry and Nan stop Otto before it's too late? Written by IMAXBT-黑光高清
  1. General
  2. Unique ID                                : 238458501869666738159814030318481907168 (0xB3656FDA47E43A40AD193F6B63DF1DE0)
  3. Complete name                            : D:\The.Harry.Hill.Movie.2013.1080p.BluRay.AVC.AC3.DD5.1.x264-PANAM.mkv
  4. Format                                   : Matroska
  5. Format version                           : Version 4
  6. File size                                : 6.30 GiB
  7. Duration                                 : 1 h 27 min
  8. Overall bit rate mode                    : Variable
  9. Overall bit rate                         : 10.3 Mb/s
  10. Frame rate                               : 23.976 FPS
  11. Encoded date                             : 2023-12-27 23:51:42 UTC
  12. Writing application                      : TMPGEnc
  13. Writing library                          : TMPGEnc
  14. Video
  15. ID                                       : 1
  16. Format                                   : AVC
  17. Format/Info                              : Advanced Video Codec
  18. Format profile                           : High@L4.1
  19. Format settings                          : CABAC / 4 Ref Frames
  20. Format settings, CABAC                   : Yes
  21. Format settings, Reference frames        : 4 frames
  22. Codec ID                                 : V_MPEG4/ISO/AVC
  23. Duration                                 : 1 h 27 min
  24. Bit rate mode                            : Variable
  25. Bit rate                                 : 9 420 kb/s
  26. Nominal bit rate                         : 9 900 kb/s
  27. Maximum bit rate                         : 39.6 Mb/s
  28. Width                                    : 1 920 pixels
  29. Height                                   : 1 080 pixels
  30. Display aspect ratio                     : 16:9
  31. Frame rate mode                          : Constant
  32. Frame rate                               : 23.976 (24000/1001) FPS
  33. Standard                                 : Component
  34. Color space                              : YUV
  35. Chroma subsampling                       : 4:2:0
  36. Bit depth                                : 8 bits
  37. Scan type                                : Progressive
  38. Bits/(Pixel*Frame)                       : 0.189
  39. Stream size                              : 5.78 GiB (92%)
  40. Writing library                          : x264 core 155
  41. Encoding settings                        : cabac=1 / ref=4 / deblock=1:0:0 / analyse=0x3:0x113 / me=umh / subme=8 / psy=1 / psy_rd=1.00:0.00 / mixed_ref=1 / me_range=16 / chroma_me=1 / trellis=1 / 8x8dct=1 / cqm=1 / deadzone=21,11 / fast_pskip=1 / chroma_qp_offset=-2 / threads=34 / lookahead_threads=5 / sliced_threads=0 / slices=1 / nr=0 / decimate=1 / interlaced=0 / minigop=0 / stitchable=1 / constrained_intra=0 / bframes=3 / b_pyramid=0 / b_adapt=2 / b_bias=0 / direct=3 / weightb=1 / open_gop=1 / weightp=2 / keyint=250 / keyint_min=23 / scenecut=40 / intra_refresh=0 / rc_lookahead=50 / rc=abr / mbtree=1 / bitrate=9900 / ratetol=1.0 / qcomp=0.60 / qpmin=3 / qpmax=69 / qpstep=4 / vbv_maxrate=39600 / vbv_bufsize=39600 / nal_hrd=vbr / filler=0 / ip_ratio=1.40 / aq=1:1.00
  42. Default                                  : Yes
  43. Forced                                   : No
  44. Color range                              : Limited
  45. Color primaries                          : BT.709
  46. Transfer characteristics                 : BT.709
  47. Matrix coefficients                      : BT.709
  48. Audio
  49. ID                                       : 2
  50. Format                                   : AC-3
  51. Format/Info                              : Audio Coding 3
  52. Commercial name                          : Dolby Digital
  53. Codec ID                                 : A_AC3
  54. Duration                                 : 1 h 27 min
  55. Bit rate mode                            : Constant
  56. Bit rate                                 : 640 kb/s
  57. Channel(s)                               : 6 channels
  58. Channel layout                           : L R C LFE Ls Rs
  59. Sampling rate                            : 48.0 kHz
  60. Frame rate                               : 31.250 FPS (1536 SPF)
  61. Compression mode                         : Lossy
  62. Stream size                              : 402 MiB (6%)
  63. Service kind                             : Complete Main
  64. Default                                  : Yes
  65. Forced                                   : No
复制代码









回复

使用道具 举报

蓝光币
330
发表于 2023-12-29 16:31:24 | 显示全部楼层
楼主发贴辛苦了,谢谢楼主分享!我觉得蓝光电影网是注册对了!
回复

使用道具 举报

蓝光币
569
发表于 2023-12-29 23:25:25 | 显示全部楼层
多谢楼主的分享啦------
回复

使用道具 举报

蓝光币
128
发表于 2023-12-30 00:34:56 | 显示全部楼层
谢谢楼主分享
回复

使用道具 举报

蓝光币
437
发表于 2023-12-30 10:47:35 | 显示全部楼层
谢谢分享
回复

使用道具 举报

蓝光币
0
发表于 2023-12-30 11:11:12 | 显示全部楼层
楼主发贴辛苦了,谢谢楼主分享!我觉得蓝光电影网是注册对了!
回复

使用道具 举报

蓝光币
1002
发表于 2023-12-30 19:54:54 | 显示全部楼层

这东西我收了!谢谢楼主!蓝光电影网真好!
回复

使用道具 举报

蓝光币
566
发表于 2023-12-31 11:13:34 | 显示全部楼层

这东西我收了!谢谢楼主!蓝光电影网真好!
回复

使用道具 举报

蓝光币
57
发表于 2023-12-31 16:04:21 | 显示全部楼层
谢谢楼主分享
回复

使用道具 举报

蓝光币
516
发表于 2024-1-1 19:35:56 | 显示全部楼层
楼主发贴辛苦了,谢谢楼主分享!我觉得蓝光电影网是注册对了!
回复

使用道具 举报

懒得打字嘛,点击右侧快捷回复 【右侧内容,后台自定义】
您需要登录后才可以回帖 登录 | 立即加入

本版积分规则

Copyright © 2024 Comsenz Inc. Powered by 蓝光电影网

本站内容由用户自主分享和转载自互联网,转载目的在于传递更多信息,并不代表本网赞同其观点和对其真实性负责。

如有侵权、违反国家法律政策行为,请联系我们,我们会第一时间及时清除和处理!

举报反馈邮箱:4k1080.com@gmail.com

快速回复 返回顶部 返回列表